<?xml version="1.0" standalone="no"?>
<!DOCTYPE svg PUBLIC "-//W3C//DTD SVG 1.1//EN" "http://www.w3.org/Graphics/SVG/1.1/DTD/svg11.dtd" >
<svg xmlns="http://www.w3.org/2000/svg" xmlns:xlink="http://www.w3.org/1999/xlink" version="1.1">
<metadata>
Created by FontForge 20170731 at Mon May 16 19:16:01 2016
 By Aleksey,,,
Copyright (c) 2011 Klim Type Foundry. All rights reserved.
</metadata>
<defs>
<font id="KPNMetricApp-Bold" horiz-adv-x="500" >
  <font-face 
    font-family="KPN Metric App"
    font-weight="700"
    font-variant="small-caps"
    font-stretch="normal"
    units-per-em="1000"
    panose-1="2 11 8 4 2 1 1 1 1 2"
    ascent="750"
    descent="-250"
    x-height="450"
    cap-height="614"
    bbox="-275 -236 3383 923"
    underline-thickness="50"
    underline-position="-150"
    unicode-range="U+0020-FB02"
  />
<missing-glyph horiz-adv-x="223" 
d="M177 650v-734h-131v734h131z" />
    <glyph glyph-name="fi" unicode="fi" horiz-adv-x="580" 
d="M328 519q-17 9 -37 9q-26 0 -41 -13.5t-15 -40.5v-24h87v-122h-87v-328h-155v328h-67v122h67v33q0 81 46 128.5t129 47.5q23 0 41 -3.5t32 -8.5v-128zM380 0v450h157v-450h-157zM548 573q0 -38 -26.5 -61t-62.5 -23t-62.5 23t-26.5 61q0 39 26.5 62t62.5 23t62.5 -23
t26.5 -62z" />
    <glyph glyph-name="fl" unicode="fl" horiz-adv-x="580" 
d="M328 519q-17 9 -37 9q-26 0 -41 -13.5t-15 -40.5v-24h87v-122h-87v-328h-155v328h-67v122h67v33q0 81 46 128.5t129 47.5q23 0 41 -3.5t32 -8.5v-128zM380 0v650h157v-650h-157z" />
    <glyph glyph-name="f_f" unicode="ff" horiz-adv-x="639" 
d="M629 519q-17 9 -37 9q-26 0 -41 -13.5t-15 -40.5v-24h87v-122h-87v-328h-155v328h-146v-328h-155v328h-67v122h67v27q0 81 46 128.5t129 47.5q23 0 41 -3.5t32 -8.5v-128q-17 9 -37 9q-25 0 -40.5 -12t-15.5 -38v-22h146v33q0 81 46 128.5t129 47.5q23 0 41 -3.5t32 -8.5
v-128z" />
    <glyph glyph-name=".notdef" horiz-adv-x="223" 
d="M177 650v-734h-131v734h131z" />
    <glyph glyph-name=".null" horiz-adv-x="0" 
 />
    <glyph glyph-name="nonmarkingreturn" horiz-adv-x="200" 
 />
    <glyph glyph-name="space" unicode=" " horiz-adv-x="200" 
 />
    <glyph glyph-name="exclam" unicode="!" horiz-adv-x="239" 
d="M26 82q0 38 27.5 63t66.5 25q19 0 36 -6.5t29.5 -18.5t20 -28t7.5 -35t-7.5 -35.5t-20 -28.5t-29.5 -18.5t-36 -6.5q-39 0 -66.5 25.5t-27.5 63.5zM215 614l-35 -408h-121l-35 408h191z" />
    <glyph glyph-name="quotedbl" unicode="&#x22;" horiz-adv-x="356" 
d="M157 614v-259h-121v259h121zM321 614v-259h-121v259h121z" />
    <glyph glyph-name="numbersign" unicode="#" horiz-adv-x="635" 
d="M446 156l-37 -156h-113l37 156h-104l-37 -156h-112l37 156h-97l23 99h97l25 104h-100l22 99h102l37 156h113l-38 -156h104l38 156h112l-37 -156h97l-23 -99h-98l-25 -104h101l-22 -99h-102zM357 255l25 104h-104l-25 -104h104z" />
    <glyph glyph-name="dollar" unicode="$" horiz-adv-x="494" 
d="M183 6q-46 5 -84.5 17.5t-64.5 28.5v142q38 -26 88 -44t100 -18q38 0 65 9.5t27 37.5q0 22 -13.5 31.5t-37.5 18.5l-88 25q-75 23 -114 63t-39 112q0 73 45 117t116 58v92h128v-91q35 -5 63 -15t54 -24v-142q-40 28 -83.5 43.5t-93.5 15.5q-34 0 -56 -10t-22 -32
q0 -20 13 -30t36 -16l88 -28q81 -26 118.5 -69t37.5 -110q0 -37 -11.5 -66t-32 -51t-49 -36.5t-62.5 -21.5v-99h-128v92z" />
    <glyph glyph-name="percent" unicode="%" horiz-adv-x="680" 
d="M117 476q0 -22 15.5 -37t36.5 -15q23 0 39 15t16 37q0 23 -16 39t-39 16q-21 0 -36.5 -16t-15.5 -39zM582 614l-394 -614h-90l394 614h90zM657 138q0 -31 -11.5 -58t-31 -47t-46.5 -31.5t-57 -11.5q-31 0 -58 11.5t-47 31.5t-31.5 47t-11.5 58q0 30 11.5 56.5t31.5 46
t47 31t58 11.5q30 0 57 -11.5t46.5 -31t31 -46t11.5 -56.5zM317 476q0 -30 -11.5 -56.5t-31.5 -46t-47 -31t-58 -11.5q-30 0 -56.5 11.5t-46 31t-31 46t-11.5 56.5q0 31 11.5 58t31 47t46 31.5t56.5 11.5q31 0 58 -11.5t47 -31.5t31.5 -47t11.5 -58zM563 138q0 22 -15 37
t-37 15q-23 0 -39 -15t-16 -37q0 -23 16 -39t39 -16q22 0 37 16t15 39z" />
    <glyph glyph-name="ampersand" unicode="&#x26;" horiz-adv-x="609" 
d="M306 497q-30 0 -46.5 -13.5t-16.5 -36.5q0 -22 13 -40t29 -36l118 -137q7 20 11 42.5t5 48.5h138q-1 -56 -17.5 -105.5t-45.5 -91.5l111 -128h-176l-32 35q-71 -45 -152 -45q-49 0 -89.5 13.5t-69 38.5t-44 61.5t-15.5 81.5q0 51 26.5 92.5t69.5 66.5q-33 49 -33 105
q0 40 15 72.5t42 55t64.5 35t82.5 12.5q42 0 80.5 -12t62.5 -32v-137q-26 22 -59.5 38t-71.5 16zM247 111q33 0 67 16l-111 123q-14 -10 -23 -27t-9 -38q0 -32 19.5 -53t56.5 -21z" />
    <glyph glyph-name="quotesingle" unicode="'" horiz-adv-x="200" 
d="M164 614v-259h-128v259h128z" />
    <glyph glyph-name="parenleft" unicode="(" horiz-adv-x="334" 
d="M30 283q0 71 20 131.5t56.5 108t89 80t118.5 47.5v-147q-63 -21 -102 -74.5t-39 -145.5t39 -145.5t102 -74.5v-147q-66 15 -118.5 47.5t-89 80t-56.5 108t-20 131.5z" />
    <glyph glyph-name="parenright" unicode=")" horiz-adv-x="334" 
d="M304 283q0 -71 -20 -131.5t-56.5 -108t-89 -80t-118.5 -47.5v147q63 21 102 74.5t39 145.5t-39 145.5t-102 74.5v147q66 -15 118.5 -47.5t89 -80t56.5 -108t20 -131.5z" />
    <glyph glyph-name="asterisk" unicode="*" horiz-adv-x="344" 
d="M61 607l74 -43v86h75v-86l73 43l38 -64l-75 -43l75 -43l-38 -64l-73 43v-86h-75v86l-74 -43l-37 64l74 43l-74 43z" />
    <glyph glyph-name="plus" unicode="+" horiz-adv-x="556" 
d="M336 357h169v-116h-169v-168h-116v168h-169v116h169v169h116v-169z" />
    <glyph glyph-name="comma" unicode="," horiz-adv-x="223" 
d="M87 10q-27 5 -47.5 26t-20.5 56q0 38 26.5 62.5t66.5 24.5q37 0 64.5 -24.5t27.5 -72.5q0 -27 -11 -53.5t-27 -50.5l-55 -83h-99z" />
    <glyph glyph-name="hyphen" unicode="-" horiz-adv-x="312" 
d="M277 328v-132h-241v132h241z" />
    <glyph glyph-name="period" unicode="." horiz-adv-x="223" 
d="M19 87q0 20 7 37t19.5 29.5t29.5 19.5t36 7q39 0 66 -26.5t27 -66.5t-27 -67t-66 -27q-19 0 -36 7t-29.5 20t-19.5 30t-7 37z" />
    <glyph glyph-name="slash" unicode="/" horiz-adv-x="394" 
d="M389 650l-248 -734h-136l248 734h136z" />
    <glyph glyph-name="zero" unicode="0" horiz-adv-x="549" 
d="M274 -10q-57 0 -103.5 23t-80 65t-52 100.5t-18.5 128.5t18.5 128.5t52 100.5t80 65t103.5 23t103.5 -23t80.5 -65t52.5 -100.5t18.5 -128.5t-18.5 -128.5t-52.5 -100.5t-80.5 -65t-103.5 -23zM274 483q-27 0 -45.5 -14t-30.5 -38t-17.5 -56t-5.5 -68t5.5 -68t17.5 -56
t30.5 -38t45.5 -14t45.5 14t30.5 38t17.5 56t5.5 68t-5.5 68t-17.5 56t-30.5 38t-45.5 14z" />
    <glyph glyph-name="one" unicode="1" horiz-adv-x="357" 
d="M151 0v440l-143 -69v152l191 91h108v-614h-156z" />
    <glyph glyph-name="two" unicode="2" horiz-adv-x="472" 
d="M457 0h-449v4l180 240q21 27 36.5 49t26.5 40.5t16.5 36t5.5 37.5q0 31 -20 49t-57 18q-24 0 -47.5 -7t-45.5 -18.5t-41.5 -24.5t-34.5 -25v154q35 29 89.5 50t121.5 21q93 0 146.5 -50.5t53.5 -134.5q0 -29 -8 -56.5t-21.5 -54.5t-31 -53.5t-37.5 -54.5l-60 -82h177
v-138z" />
    <glyph glyph-name="three" unicode="3" horiz-adv-x="449" 
d="M429 614v-3l-120 -239q57 -24 88 -68t31 -105q0 -50 -18 -88.5t-49 -65.5t-72.5 -41t-87.5 -14q-64 0 -107.5 14.5t-75.5 37.5v147q36 -32 78.5 -50t87.5 -18t70 19.5t25 57.5q0 25 -12.5 42.5t-33.5 28t-48.5 14.5t-58.5 2v3l95 188h-200v138h408z" />
    <glyph glyph-name="four" unicode="4" horiz-adv-x="512" 
d="M291 242v110h138v-110h70v-130h-70v-112h-138v112h-266v110l176 392h162l-167 -372h95z" />
    <glyph glyph-name="five" unicode="5" horiz-adv-x="453" 
d="M214 403q48 0 88.5 -14t70.5 -40.5t47 -64.5t17 -86t-18 -86.5t-49.5 -65.5t-75 -41.5t-94.5 -14.5q-58 0 -101.5 14.5t-75.5 36.5v145q31 -29 74.5 -47.5t89.5 -18.5q42 0 72 18.5t30 57.5q0 40 -30 59.5t-78 19.5q-36 0 -72.5 -6.5t-65.5 -17.5v363h361v-138h-236v-77
q9 2 20.5 3t25.5 1z" />
    <glyph glyph-name="six" unicode="6" horiz-adv-x="508" 
d="M254 -10q-50 0 -93 17t-74.5 47.5t-49 72.5t-17.5 91q0 39 13.5 78.5t45.5 94.5l129 223h171l-105 -185q8 2 15 2q45 -3 81.5 -21t63 -46.5t40.5 -66t14 -79.5q0 -49 -17.5 -91t-49 -72.5t-74 -47.5t-93.5 -17zM343 218q0 38 -25 64t-64 26q-38 0 -63 -26t-25 -64
t25 -63.5t63 -25.5q39 0 64 25.5t25 63.5z" />
    <glyph glyph-name="seven" unicode="7" horiz-adv-x="484" 
d="M37 0l220 476h-243v138h469v-3l-278 -611h-168z" />
    <glyph glyph-name="eight" unicode="8" horiz-adv-x="505" 
d="M252 114q34 0 56 18.5t22 49.5q0 32 -22 50t-56 18q-33 0 -55 -18t-22 -50q0 -31 22 -49.5t55 -18.5zM252 378q29 0 49 17t20 45q0 29 -20 46.5t-49 17.5t-49 -17.5t-20 -46.5q0 -28 20 -45t49 -17zM252 -10q-48 0 -90 12t-73.5 35.5t-49.5 57t-18 75.5q0 54 28.5 91
t70.5 51q-38 18 -59 53t-21 80q0 43 17.5 76.5t46.5 56.5t67.5 34.5t80.5 11.5t80.5 -11.5t68 -34.5t46.5 -56.5t17 -76.5q0 -45 -21 -80t-58 -53q42 -14 70.5 -51t28.5 -91q0 -42 -18.5 -75.5t-50 -57t-73.5 -35.5t-90 -12z" />
    <glyph glyph-name="nine" unicode="9" horiz-adv-x="508" 
d="M254 624q50 0 93 -17t74.5 -47.5t49 -72.5t17.5 -91q0 -39 -13.5 -78.5t-45.5 -94.5l-129 -223h-171l105 185q-8 -2 -15 -2q-45 3 -81.5 21t-63 46.5t-40.5 66t-14 79.5q0 49 17.5 91t49 72.5t74 47.5t93.5 17zM165 396q0 -38 25 -64t64 -26q38 0 63 26t25 64t-25 63.5
t-63 25.5q-39 0 -64 -25.5t-25 -63.5z" />
    <glyph glyph-name="colon" unicode=":" horiz-adv-x="223" 
d="M19 87q0 20 7 37t19.5 29.5t29.5 19.5t36 7q39 0 66 -26.5t27 -66.5t-27 -67t-66 -27q-19 0 -36 7t-29.5 20t-19.5 30t-7 37zM19 352q0 20 7 37t19.5 29.5t29.5 19.5t36 7q39 0 66 -26.5t27 -66.5t-27 -67t-66 -27q-19 0 -36 7t-29.5 20t-19.5 30t-7 37z" />
    <glyph glyph-name="semicolon" unicode=";" horiz-adv-x="223" 
d="M87 10q-27 5 -47.5 26t-20.5 56q0 38 26.5 62.5t66.5 24.5q37 0 64.5 -24.5t27.5 -72.5q0 -27 -11 -53.5t-27 -50.5l-55 -83h-99zM19 352q0 20 7 37t19.5 29.5t29.5 19.5t36 7q39 0 66 -26.5t27 -66.5t-27 -67t-66 -27q-19 0 -36 7t-29.5 20t-19.5 30t-7 37z" />
    <glyph glyph-name="less" unicode="&#x3c;" horiz-adv-x="433" 
d="M387 522v-129l-236 -96l236 -95v-130l-345 153v144z" />
    <glyph glyph-name="equal" unicode="=" horiz-adv-x="574" 
d="M513 261v-103h-452v103h452zM513 445v-105h-452v105h452z" />
    <glyph glyph-name="greater" unicode="&#x3e;" horiz-adv-x="433" 
d="M47 72v130l236 95l-236 96v129l345 -153v-144z" />
    <glyph glyph-name="question" unicode="?" horiz-adv-x="394" 
d="M210 413q0 31 -20.5 48t-52.5 17q-34 0 -64.5 -14t-50.5 -30v144q30 21 70 33.5t82 12.5q45 0 81.5 -13.5t62.5 -37t40 -56.5t14 -72q0 -50 -19 -84.5t-42 -60.5t-42 -48t-19 -46h-146q0 35 16.5 61.5t36.5 49.5t36.5 45.5t16.5 50.5zM81 82q0 38 27 63t66 25
q40 0 67.5 -25t27.5 -63q0 -19 -7.5 -35.5t-20 -28.5t-30 -18.5t-37.5 -6.5q-39 0 -66 25.5t-27 63.5z" />
    <glyph glyph-name="at" unicode="@" horiz-adv-x="759" 
d="M538 148q-1 -5 -1.5 -8.5t-0.5 -6.5q0 -26 28 -26q44 0 70.5 43t26.5 124q0 53 -19.5 94t-54 69.5t-82 43.5t-102.5 15q-67 0 -122 -22t-94.5 -62.5t-61.5 -97t-22 -124.5q0 -79 28 -131t72 -83t97 -43.5t104 -12.5q70 0 123 13.5t101 34.5v-75q-38 -19 -96.5 -33
t-127.5 -14q-74 0 -143 20t-122.5 62t-86 107t-32.5 155q0 79 27.5 148t78 121t121 82t156.5 30q75 0 136.5 -22.5t106 -62.5t69 -94.5t24.5 -117.5q0 -62 -16.5 -107.5t-45 -76.5t-66.5 -46t-81 -15q-35 0 -66 12.5t-50 37.5q-16 -24 -43 -36t-56 -12q-33 0 -58.5 12
t-43 32.5t-26.5 48.5t-9 61q0 42 13.5 81t37.5 68.5t58.5 47t76.5 17.5q28 0 51.5 -10.5t33.5 -25.5l6 28h125zM430 259q-4 14 -17 22.5t-31 8.5q-32 0 -53 -27.5t-21 -66.5q0 -25 12.5 -40.5t38.5 -15.5q20 0 34 9.5t22 23.5z" />
    <glyph glyph-name="A" unicode="A" horiz-adv-x="646" 
d="M639 0h-163l-44 119h-223l-43 -119h-159l234 614h164zM384 251l-63 173l-63 -173h126z" />
    <glyph glyph-name="B" unicode="B" horiz-adv-x="557" 
d="M432 317q44 -14 72 -53.5t28 -91.5q0 -84 -53.5 -128t-150.5 -44h-282v614h263q97 0 151 -42t54 -125q0 -50 -24 -84t-58 -46zM291 371q72 0 72 56q0 55 -72 55h-92v-111h92zM307 132q34 0 52 16.5t18 42.5q0 28 -18 44t-52 16h-108v-119h108z" />
    <glyph glyph-name="C" unicode="C" horiz-adv-x="529" 
d="M22 307q0 72 23 130.5t64.5 100t99.5 64t128 22.5q49 0 88 -11t68 -31v-156q-65 50 -143 50q-77 0 -122 -44.5t-45 -124.5q0 -79 45 -123.5t122 -44.5q38 0 74 11.5t69 37.5v-156q-29 -20 -68 -31t-88 -11q-70 0 -128 22.5t-99.5 64t-64.5 100t-23 130.5z" />
    <glyph glyph-name="D" unicode="D" horiz-adv-x="609" 
d="M270 139q77 0 118 45t41 123t-41 123.5t-118 45.5h-66v-337h66zM278 614q72 0 129.5 -21.5t97.5 -61.5t61.5 -97t21.5 -127t-21.5 -127t-61.5 -97t-97.5 -61.5t-129.5 -21.5h-232v614h232z" />
    <glyph glyph-name="E" unicode="E" horiz-adv-x="519" 
d="M485 476h-281v-96h257v-135h-257v-106h281v-139h-439v614h439v-138z" />
    <glyph glyph-name="F" unicode="F" horiz-adv-x="507" 
d="M46 614h432v-139h-273v-122h251v-136h-251v-217h-159v614z" />
    <glyph glyph-name="G" unicode="G" horiz-adv-x="595" 
d="M339 133q50 0 79 22v60h-89v128h231v-271q-47 -43 -104.5 -62.5t-121.5 -19.5q-72 0 -130 23t-98.5 65t-62 100t-21.5 127q0 72 24 131t67 101t103.5 64.5t133.5 22.5q51 0 97.5 -13t80.5 -35v-156q-35 26 -78 41t-100 15q-37 0 -67.5 -12t-52.5 -34t-34.5 -53.5
t-12.5 -71.5q0 -39 11.5 -71t32 -54.5t49 -34.5t63.5 -12z" />
    <glyph glyph-name="H" unicode="H" horiz-adv-x="650" 
d="M605 0h-161v243h-237v-243h-161v614h161v-233h237v233h161v-614z" />
    <glyph glyph-name="I" unicode="I" horiz-adv-x="253" 
d="M46 0v614h161v-614h-161z" />
    <glyph glyph-name="J" unicode="J" horiz-adv-x="418" 
d="M22 177q29 -20 56.5 -31t61.5 -11q46 0 62.5 26t16.5 84v369h161v-398q0 -59 -15 -102t-43.5 -70.5t-69 -40.5t-90.5 -13q-44 0 -82 11.5t-58 24.5v151z" />
    <glyph glyph-name="K" unicode="K" horiz-adv-x="604" 
d="M402 614h187l-226 -294l235 -320h-190l-201 275v-275h-161v614h161v-261z" />
    <glyph glyph-name="L" unicode="L" horiz-adv-x="510" 
d="M207 614v-475h275v-139h-436v614h161z" />
    <glyph glyph-name="M" unicode="M" horiz-adv-x="726" 
d="M203 352v-352h-157v614h149l168 -250l169 250h148v-614h-158v352l-157 -220h-4z" />
    <glyph glyph-name="N" unicode="N" horiz-adv-x="634" 
d="M458 0l-257 359v-359h-155v614h150l237 -338v338h155v-614h-130z" />
    <glyph glyph-name="O" unicode="O" horiz-adv-x="643" 
d="M622 307q0 -69 -22 -127t-62 -100t-95 -66t-122 -24q-66 0 -121 24t-94.5 66t-61.5 100t-22 127t22 127t61.5 100.5t94.5 66t121 23.5q67 0 122 -23.5t95 -66t62 -100.5t22 -127zM460 307q0 80 -38 128t-101 48t-100 -48t-37 -128t37 -128t100 -48t101 48t38 128z" />
    <glyph glyph-name="P" unicode="P" horiz-adv-x="561" 
d="M205 0h-159v614h269q50 0 91 -14t70.5 -41t45.5 -66.5t16 -90.5t-16 -90.5t-45.5 -66t-70.5 -40.5t-91 -14h-110v-191zM382 402q0 35 -20 56t-64 21h-93v-154h93q44 0 64 21t20 56z" />
    <glyph glyph-name="Q" unicode="Q" horiz-adv-x="643" 
d="M440 15q-56 -25 -119 -25q-66 0 -121 24t-94.5 66t-61.5 100t-22 127t22 127t61.5 100.5t94.5 66t121 23.5q67 0 122 -23.5t95 -66t62 -100.5t22 -127q0 -66 -21.5 -121.5t-59.5 -97.5l45 -55l-97 -78zM460 307q0 80 -38 128t-101 48t-100 -48t-37 -128q0 -40 9.5 -73.5
t27.5 -58t43.5 -38t56.5 -13.5q15 0 29 3l-49 61l97 76l46 -57q8 20 12 45t4 55z" />
    <glyph glyph-name="R" unicode="R" horiz-adv-x="574" 
d="M205 0h-159v614h276q49 0 90.5 -14t70.5 -40.5t45.5 -65.5t16.5 -89q0 -70 -32.5 -117t-89.5 -68l144 -220h-178l-128 203h-56v-203zM305 331q43 0 63 20t20 54t-20 54t-63 20h-100v-148h100z" />
    <glyph glyph-name="S" unicode="S" horiz-adv-x="504" 
d="M32 188q40 -27 92.5 -45.5t104.5 -18.5q38 0 66.5 10t28.5 39q0 23 -13.5 33t-38.5 19l-93 27q-78 23 -119 64.5t-41 118.5q0 46 18 81t49.5 59t74 36.5t90.5 12.5q63 0 109 -12.5t84 -33.5v-148q-42 29 -87.5 45t-98.5 16q-35 0 -58 -10.5t-23 -33.5q0 -21 13.5 -31
t37.5 -18l93 -28q85 -26 124 -71.5t39 -116.5q0 -50 -20 -86t-54 -59.5t-79.5 -35t-97.5 -11.5q-62 0 -114.5 15t-86.5 35v148z" />
    <glyph glyph-name="T" unicode="T" horiz-adv-x="580" 
d="M560 614v-138h-190v-476h-161v476h-189v138h540z" />
    <glyph glyph-name="U" unicode="U" horiz-adv-x="613" 
d="M307 -10q-61 0 -110.5 17t-84.5 50t-54 82t-19 112v363h160v-349q0 -66 28.5 -99t79.5 -33q50 0 78.5 33t28.5 99v349h160v-364q0 -63 -19 -111.5t-54 -81.5t-84 -50t-110 -17z" />
    <glyph glyph-name="V" unicode="V" horiz-adv-x="629" 
d="M7 614h172l139 -397l139 397h165l-229 -614h-157z" />
    <glyph glyph-name="W" unicode="W" horiz-adv-x="820" 
d="M567 253l85 361h162l-162 -614h-147l-95 360l-96 -360h-147l-161 614h164l86 -361l95 361h122z" />
    <glyph glyph-name="X" unicode="X" horiz-adv-x="604" 
d="M601 0h-179l-122 189l-122 -189h-175l207 314l-197 300h179l111 -175l114 175h174l-197 -300z" />
    <glyph glyph-name="Y" unicode="Y" horiz-adv-x="612" 
d="M607 614l-222 -396v-218h-161v218l-218 396h174l129 -240l129 240h169z" />
    <glyph glyph-name="Z" unicode="Z" horiz-adv-x="554" 
d="M20 0v4l266 472h-254v138h497v-4l-262 -471h259v-139h-506z" />
    <glyph glyph-name="bracketleft" unicode="[" horiz-adv-x="331" 
d="M311 46v-130h-265v734h265v-130h-119v-474h119z" />
    <glyph glyph-name="backslash" unicode="\" horiz-adv-x="394" 
d="M253 -84l-248 734h136l248 -734h-136z" />
    <glyph glyph-name="bracketright" unicode="]" horiz-adv-x="331" 
d="M20 520v130h265v-734h-265v130h119v474h-119z" />
    <glyph glyph-name="asciicircum" unicode="^" horiz-adv-x="432" 
d="M422 376h-134l-72 125l-71 -125h-135l142 238h128z" />
    <glyph glyph-name="underscore" unicode="_" horiz-adv-x="381" 
d="M361 -42v-119h-341v119h341z" />
    <glyph glyph-name="grave" unicode="`" 
d="M134 650h149l82 -150h-144z" />
    <glyph glyph-name="a" unicode="a" horiz-adv-x="479" 
d="M289 271q0 26 -24 43t-72 17q-32 0 -64 -8t-59 -24v126q28 15 70.5 25t90.5 10q100 0 154.5 -46t54.5 -136v-278h-151v23q-11 -11 -40.5 -21t-65.5 -10q-33 0 -63 9.5t-52.5 27.5t-36 45t-13.5 63q0 33 13.5 59t36.5 45t55 29t68 10q29 0 56.5 -7.5t41.5 -17.5v16z
M289 152q-8 14 -25 22.5t-38 8.5q-23 0 -42.5 -10t-19.5 -33t19.5 -33.5t42.5 -10.5q21 0 38 8t25 22v26z" />
    <glyph glyph-name="b" unicode="b" horiz-adv-x="529" 
d="M42 0v650h157v-236q16 18 46 32t65 14q49 0 86.5 -18.5t63 -50.5t38.5 -74.5t13 -91.5t-13 -91.5t-38.5 -74.5t-63 -50.5t-86.5 -18.5q-35 0 -65 14t-46 32v-36h-157zM199 166q9 -19 27.5 -30.5t41.5 -11.5q41 0 63.5 28.5t22.5 72.5t-22.5 73t-63.5 29q-23 0 -41.5 -12
t-27.5 -30v-119z" />
    <glyph glyph-name="c" unicode="c" horiz-adv-x="400" 
d="M18 225q0 54 17.5 97.5t49 74t74.5 47t94 16.5q35 0 66 -7.5t55 -24.5v-132q-44 32 -97 32q-44 0 -74 -26t-30 -77t30 -77t74 -26q53 0 97 32v-132q-24 -17 -55 -24.5t-66 -7.5q-51 0 -94 16.5t-74.5 47t-49 74t-17.5 97.5z" />
    <glyph glyph-name="d" unicode="d" horiz-adv-x="529" 
d="M330 36q-16 -18 -46 -32t-65 -14q-49 0 -86.5 18.5t-63 50.5t-38.5 74.5t-13 91.5t13 91.5t38.5 74.5t63 50.5t86.5 18.5q35 0 65 -14t46 -32v236h157v-650h-157v36zM330 285q-9 18 -27.5 30t-41.5 12q-41 0 -63.5 -29t-22.5 -73t22.5 -72.5t63.5 -28.5q23 0 41.5 11.5
t27.5 30.5v119z" />
    <glyph glyph-name="e" unicode="e" horiz-adv-x="468" 
d="M170 189q10 -41 40.5 -58.5t74.5 -17.5q36 0 66 8t64 28v-119q-26 -20 -66 -30t-89 -10q-54 0 -98.5 16t-76.5 46t-49.5 73t-17.5 97q0 53 16.5 96.5t46 75t69 49t86.5 17.5q52 0 92 -16.5t66 -46t39.5 -71t13.5 -91.5v-46h-277zM242 341q-53 0 -70 -64h135
q-3 29 -19.5 46.5t-45.5 17.5z" />
    <glyph glyph-name="f" unicode="f" horiz-adv-x="338" 
d="M328 519q-17 9 -37 9q-26 0 -41 -13.5t-15 -40.5v-24h87v-122h-87v-328h-155v328h-67v122h67v33q0 81 46 128.5t129 47.5q23 0 41 -3.5t32 -8.5v-128z" />
    <glyph glyph-name="g" unicode="g" horiz-adv-x="521" 
d="M323 61q-15 -17 -42 -30.5t-64 -13.5q-48 0 -85 17t-62.5 47t-38.5 70.5t-13 87.5q0 46 13 86.5t38.5 70.5t62.5 47t85 17q37 0 64 -13t42 -31v34h155v-385q0 -62 -20.5 -106.5t-56.5 -73t-83.5 -41.5t-101.5 -13q-48 0 -91.5 10.5t-70.5 27.5v144q35 -29 72.5 -42
t84.5 -13q22 0 42.5 5t36 15.5t24.5 27t9 40.5v15zM323 298q-9 15 -26.5 26.5t-40.5 11.5q-39 0 -61 -27t-22 -70t22 -70t61 -27q23 0 40.5 11t26.5 26v119z" />
    <glyph glyph-name="h" unicode="h" horiz-adv-x="519" 
d="M199 650v-239q19 21 50.5 35t70.5 14q75 0 117 -45t42 -120v-295h-156v257q0 28 -14.5 46t-44.5 18q-23 0 -41 -13t-24 -36v-272h-157v650h157z" />
    <glyph glyph-name="i" unicode="i" horiz-adv-x="242" 
d="M42 0v450h157v-450h-157zM211 573q0 -38 -26.5 -61t-62.5 -23t-62.5 23t-26.5 61q0 39 26.5 62t62.5 23t62.5 -23t26.5 -62z" />
    <glyph glyph-name="j" unicode="j" horiz-adv-x="241" 
d="M199 10q0 -85 -43 -132t-128 -47q-37 0 -57 7v118q5 -1 10.5 -1.5t12.5 -0.5q24 0 36 11t12 39v446h157v-440zM211 573q0 -38 -26.5 -61t-62.5 -23t-62.5 23t-26.5 61q0 39 26.5 62t62.5 23t62.5 -23t26.5 -62z" />
    <glyph glyph-name="k" unicode="k" horiz-adv-x="511" 
d="M335 0l-136 197v-197h-157v650h157v-370l128 170h180l-167 -208l171 -242h-176z" />
    <glyph glyph-name="l" unicode="l" horiz-adv-x="242" 
d="M42 0v650h157v-650h-157z" />
    <glyph glyph-name="m" unicode="m" horiz-adv-x="769" 
d="M439 406q20 21 54.5 37.5t84.5 16.5q71 0 111.5 -44.5t40.5 -120.5v-295h-157v257q0 29 -12.5 47t-38.5 18q-20 0 -36 -12.5t-22 -35.5v-274h-156v257q0 29 -12.5 47t-38.5 18q-20 0 -36.5 -12.5t-21.5 -35.5v-274h-157v450h157v-37q17 21 47.5 34t68.5 13q43 0 73.5 -15
t50.5 -39z" />
    <glyph glyph-name="n" unicode="n" horiz-adv-x="519" 
d="M199 450v-39q19 21 50.5 35t70.5 14q75 0 117 -45t42 -120v-295h-156v257q0 28 -14.5 46t-44.5 18q-23 0 -41 -13t-24 -36v-272h-157v450h157z" />
    <glyph glyph-name="o" unicode="o" horiz-adv-x="497" 
d="M478 225q0 -52 -16.5 -95.5t-47 -74.5t-73 -48t-93.5 -17t-93.5 17t-72.5 48t-47 74.5t-17 95.5t17 95.5t47 74.5t72.5 48t93.5 17t93.5 -17t73 -48t47 -74.5t16.5 -95.5zM324 225q0 47 -19.5 76.5t-56.5 29.5q-36 0 -55.5 -29.5t-19.5 -76.5t19.5 -76t55.5 -29
q37 0 56.5 29t19.5 76z" />
    <glyph glyph-name="p" unicode="p" horiz-adv-x="529" 
d="M42 -159v609h157v-36q16 18 46 32t65 14q49 0 86.5 -18.5t63 -50.5t38.5 -75t13 -91t-13 -90.5t-38.5 -75t-63 -51t-86.5 -18.5q-35 0 -65 14t-46 32v-195h-157zM199 166q9 -19 27.5 -30.5t41.5 -11.5q41 0 63.5 28.5t22.5 72.5t-22.5 73t-63.5 29q-23 0 -41.5 -12
t-27.5 -30v-119z" />
    <glyph glyph-name="q" unicode="q" horiz-adv-x="529" 
d="M330 36q-16 -18 -46 -32t-65 -14q-49 0 -86.5 18.5t-63 51t-38.5 75t-13 90.5t13 91t38.5 75t63 50.5t86.5 18.5q35 0 65 -14t46 -32v36h157v-609h-157v195zM330 285q-9 18 -27.5 30t-41.5 12q-41 0 -63.5 -29t-22.5 -73t22.5 -72.5t63.5 -28.5q23 0 41.5 11.5t27.5 30.5
v119z" />
    <glyph glyph-name="r" unicode="r" horiz-adv-x="365" 
d="M344 301q-27 14 -65 14q-32 0 -53 -13.5t-27 -37.5v-264h-157v450h157v-40q17 23 42.5 36.5t59.5 13.5q15 0 26.5 -2.5t16.5 -5.5v-151z" />
    <glyph glyph-name="s" unicode="s" horiz-adv-x="411" 
d="M26 165q16 -13 36.5 -23.5t42 -18t42.5 -11.5t38 -4q23 0 37 6t14 21q0 14 -10.5 20t-30.5 11l-35 9q-63 14 -99.5 45.5t-36.5 92.5q0 35 14 62.5t38.5 46t58 28.5t73.5 10q48 0 86 -10t71 -30v-129q-32 23 -68 37.5t-74 14.5q-20 0 -32.5 -6.5t-12.5 -20.5
q0 -13 9 -18.5t26 -10.5l41 -12q73 -20 105 -52.5t32 -89.5q0 -36 -14.5 -63t-40.5 -44.5t-61.5 -26.5t-77.5 -9q-48 0 -93.5 11t-77.5 32v132z" />
    <glyph glyph-name="t" unicode="t" horiz-adv-x="354" 
d="M94 0v328h-78v122h78v124h156v-124h88v-122h-88v-328h-156z" />
    <glyph glyph-name="u" unicode="u" horiz-adv-x="517" 
d="M318 0v39q-18 -21 -50 -35t-70 -14q-75 0 -116.5 45t-41.5 120v295h156v-258q0 -29 14 -47t44 -18q22 0 40 13.5t24 36.5v273h157v-450h-157z" />
    <glyph glyph-name="v" unicode="v" horiz-adv-x="497" 
d="M7 450h160l86 -258l84 258h154l-172 -450h-141z" />
    <glyph glyph-name="w" unicode="w" horiz-adv-x="698" 
d="M541 450h150l-145 -450h-133l-64 228l-64 -228h-133l-145 450h156l71 -244l68 244h100l67 -244z" />
    <glyph glyph-name="x" unicode="x" horiz-adv-x="494" 
d="M490 0h-170l-77 117l-77 -117h-162l157 229l-150 221h169l70 -108l71 108h162l-151 -220z" />
    <glyph glyph-name="y" unicode="y" horiz-adv-x="502" 
d="M175 11l-168 439h163l86 -256l84 256h156l-232 -609h-155z" />
    <glyph glyph-name="z" unicode="z" horiz-adv-x="444" 
d="M16 0v4l184 324h-173v122h392v-4l-175 -323h175v-123h-403z" />
    <glyph glyph-name="braceleft" unicode="{" horiz-adv-x="366" 
d="M235 75q0 -29 29 -29h82v-130h-124q-57 0 -93 36t-36 94v143q0 29 -29 29h-44v130h44q29 0 29 29v143q0 58 36 94t93 36h124v-130h-82q-29 0 -29 -29v-125q0 -32 -13.5 -51.5t-33.5 -31.5q20 -12 33.5 -31.5t13.5 -51.5v-125z" />
    <glyph glyph-name="bar" unicode="|" horiz-adv-x="223" 
d="M177 650v-734h-131v734h131z" />
    <glyph glyph-name="braceright" unicode="}" horiz-adv-x="366" 
d="M131 200q0 32 13.5 51.5t33.5 31.5q-20 12 -33.5 31.5t-13.5 51.5v125q0 29 -29 29h-82v130h124q57 0 93 -36t36 -94v-143q0 -29 29 -29h44v-130h-44q-29 0 -29 -29v-143q0 -58 -36 -94t-93 -36h-124v130h82q29 0 29 29v125z" />
    <glyph glyph-name="asciitilde" unicode="~" horiz-adv-x="426" 
d="M396 355q0 -78 -28.5 -120.5t-81.5 -42.5q-23 0 -40 8.5t-30.5 19t-26 19.5t-25.5 9q-35 0 -35 -51h-98q0 77 28 120t82 43q23 0 40 -9t30.5 -19.5t25.5 -19t26 -8.5q17 0 26 12t9 39h98z" />
    <glyph glyph-name="uni00A0" unicode="&#xa0;" horiz-adv-x="200" 
 />
    <glyph glyph-name="exclamdown" unicode="&#xa1;" horiz-adv-x="243" 
d="M26 436q0 38 27.5 63.5t66.5 25.5q19 0 36 -6.5t29.5 -18.5t20 -28.5t7.5 -35.5t-7.5 -35t-20 -28t-29.5 -18.5t-36 -6.5q-39 0 -66.5 25t-27.5 63zM180 312l35 -408h-191l35 408h121z" />
    <glyph glyph-name="cent" unicode="&#xa2;" horiz-adv-x="416" 
d="M184 10q-72 20 -116 78.5t-44 146.5t44 146.5t116 78.5v98h128v-93q20 -3 39 -9.5t33 -17.5v-132q-44 32 -102 32q-43 0 -73 -26t-30 -77t30 -77t73 -26q58 0 102 32v-132q-29 -22 -72 -28v-89h-128v95z" />
    <glyph glyph-name="sterling" unicode="&#xa3;" horiz-adv-x="480" 
d="M91 363v47q0 49 16 88.5t46 67.5t72 43t93 15q40 0 74 -8.5t55 -21.5v-141q-21 14 -49 22.5t-62 8.5q-43 0 -68 -25t-25 -77v-19h117v-119h-117v-23q0 -26 -5 -51t-16 -40h240v-130h-436v130h45q10 17 15 37.5t5 53.5v23h-65v119h65z" />
    <glyph glyph-name="yen" unicode="&#xa5;" horiz-adv-x="573" 
d="M159 336l-145 278h174l102 -214l102 214h167l-147 -278h97v-92h-145v-48h145v-92h-145v-104h-157v104h-144v92h144v48h-144v92h96z" />
    <glyph glyph-name="section" unicode="&#xa7;" horiz-adv-x="483" 
d="M189 334q-16 -3 -22.5 -13t-6.5 -22q0 -15 10.5 -25t26.5 -21l96 -63q17 3 23.5 13t6.5 22q0 15 -10.5 25t-26.5 21zM97 406q-13 15 -20.5 34t-7.5 45q0 32 13.5 58t38 44t58.5 27.5t74 9.5q92 0 157 -40v-129q-32 23 -69 37t-73 14q-22 0 -34.5 -8t-12.5 -22
q0 -12 8 -20t22 -16l106 -65q48 -29 77 -60t29 -80q0 -38 -20.5 -69t-57.5 -49q14 -14 21.5 -33t7.5 -45q0 -32 -13.5 -58t-38 -44t-58 -27.5t-73.5 -9.5q-48 0 -86.5 10t-71.5 30v129q32 -23 69 -37t73 -14q22 0 34.5 8t12.5 22q0 12 -8 20t-22 16l-106 65q-48 29 -77 60
t-29 80q0 38 20 69t57 48z" />
    <glyph glyph-name="dieresis" unicode="&#xa8;" 
d="M84 567q0 32 22.5 54.5t54.5 22.5t54.5 -22.5t22.5 -54.5t-22.5 -54t-54.5 -22t-54.5 22t-22.5 54zM261 567q0 32 22 54.5t54 22.5q16 0 30 -6t24.5 -16.5t17 -24.5t6.5 -30q0 -32 -23 -54t-55 -22t-54 22t-22 54z" />
    <glyph glyph-name="copyright" unicode="&#xa9;" horiz-adv-x="704" 
d="M669 307q0 -69 -25 -127t-68 -100.5t-101 -66t-123 -23.5t-123 23.5t-101 66t-68 100.5t-25 127t25 127t68 100.5t101 66t123 23.5t123 -23.5t101 -66t68 -100.5t25 -127zM622 307q0 59 -21.5 108.5t-58 85.5t-86 56.5t-104.5 20.5q-56 0 -105 -20.5t-85.5 -56.5
t-58 -85.5t-21.5 -108.5t21.5 -108.5t58 -85.5t85.5 -56.5t105 -20.5q55 0 104.5 20.5t86 56.5t58 85.5t21.5 108.5zM165 309q0 45 14.5 82t41 63.5t64 40.5t83.5 14q58 0 96 -24v-107q-20 13 -41.5 20t-44.5 7q-46 0 -73 -25t-27 -71q0 -45 27 -70t73 -25q45 0 86 26v-107
q-18 -11 -42.5 -17.5t-53.5 -6.5q-46 0 -83.5 14t-64 40.5t-41 63.5t-14.5 82z" />
    <glyph glyph-name="ordfeminine" unicode="&#xaa;" horiz-adv-x="319" 
d="M189 493q0 15 -16 26.5t-49 11.5q-20 0 -41.5 -6t-39.5 -16v92q20 10 49.5 16.5t62.5 6.5q143 0 143 -127v-186h-109v15q-8 -8 -27.5 -14.5t-44.5 -6.5q-22 0 -42 6.5t-35 19t-24 31t-9 42.5q0 45 33.5 71t82.5 26q20 0 38 -5t28 -12v9zM189 414q-5 8 -15 13t-24 5
q-13 0 -24 -6.5t-11 -19.5q0 -14 11 -20t24 -6q28 0 39 19v15z" />
    <glyph glyph-name="guillemotleft" unicode="&#xab;" horiz-adv-x="451" 
d="M25 222l92 164h128l-92 -164l92 -164h-128zM206 222l92 164h128l-92 -164l92 -164h-128z" />
    <glyph glyph-name="uni00AD" unicode="&#xad;" horiz-adv-x="312" 
d="M277 328v-132h-241v132h241z" />
    <glyph glyph-name="registered" unicode="&#xae;" horiz-adv-x="407" 
d="M384 441q0 -40 -14.5 -73.5t-39 -58t-57.5 -38t-70 -13.5t-70 13.5t-57.5 38t-39 58t-14.5 73.5t14.5 73.5t39 58t57.5 38t70 13.5t70 -13.5t57.5 -38t39 -58t14.5 -73.5zM351 441q0 33 -11.5 61t-31.5 48.5t-47 31.5t-58 11t-58 -11t-47 -31.5t-31.5 -48.5t-11.5 -61
t11.5 -61t31.5 -48.5t47 -31.5t58 -11t58 11t47 31.5t31.5 48.5t11.5 61zM185 346h-59v192h93q32 0 52 -18t20 -51q0 -21 -9.5 -35.5t-26.5 -22.5l42 -65h-65l-35 58h-12v-58zM233 469q0 20 -23 20h-25v-38h25q23 0 23 18z" />
    <glyph glyph-name="macron" unicode="&#xaf;" 
d="M376 612v-108h-253v108h253z" />
    <glyph glyph-name="degree" unicode="&#xb0;" horiz-adv-x="362" 
d="M124 483q0 -25 17 -42t40 -17t39.5 17t16.5 42q0 24 -16.5 41t-39.5 17t-40 -17t-17 -41zM320 483q0 -30 -11 -55.5t-30 -44.5t-44.5 -30t-53.5 -11q-29 0 -54 11t-44 30t-30 44.5t-11 55.5q0 29 11 55t30 45t44 30t54 11q28 0 53.5 -11t44.5 -30t30 -45t11 -55z" />
    <glyph glyph-name="plusminus" unicode="&#xb1;" horiz-adv-x="567" 
d="M336 433h166v-104h-166v-128h-105v128h-165v104h165v128h105v-128zM502 153v-105h-436v105h436z" />
    <glyph glyph-name="twosuperior" unicode="&#xb2;" horiz-adv-x="286" 
d="M277 264h-271v2l103 138q23 32 33.5 48.5t10.5 34.5q0 15 -10 24t-29 9q-26 0 -52 -14.5t-43 -26.5v101q20 16 53 27.5t75 11.5q54 0 85 -29t31 -77q0 -32 -16.5 -61t-36.5 -58l-27 -38h94v-92z" />
    <glyph glyph-name="threesuperior" unicode="&#xb3;" horiz-adv-x="274" 
d="M261 614v-2l-67 -134q31 -15 48 -40.5t17 -57.5q0 -29 -10.5 -52t-29 -38.5t-43 -23.5t-52.5 -8q-38 0 -63.5 8.5t-45.5 21.5v95q22 -18 46.5 -28t49.5 -10q48 0 48 35q0 22 -20 31.5t-46 9.5h-8t-8 -1v2l52 99h-112v93h244z" />
    <glyph glyph-name="acute" unicode="&#xb4;" 
d="M216 650h149l-87 -150h-144z" />
    <glyph glyph-name="paragraph" unicode="&#xb6;" horiz-adv-x="551" 
d="M505 614v-704h-105v704h105zM242 247q-41 0 -82 10.5t-73.5 33t-52.5 57.5t-20 83t20 83t52.5 57t73.5 32.5t82 10.5h104v-704h-104v337z" />
    <glyph glyph-name="periodcentered" unicode="&#xb7;" horiz-adv-x="233" 
d="M24 262q0 20 7 37t19.5 29.5t29.5 19.5t36 7q39 0 66 -26.5t27 -66.5t-27 -67t-66 -27q-19 0 -36 7t-29.5 20t-19.5 30t-7 37z" />
    <glyph glyph-name="cedilla" unicode="&#xb8;" 
d="M210 -40h134l-70 -141h-133z" />
    <glyph glyph-name="onesuperior" unicode="&#xb9;" horiz-adv-x="233" 
d="M97 264v233l-87 -42v105l115 54h76v-350h-104z" />
    <glyph glyph-name="ordmasculine" unicode="&#xba;" horiz-adv-x="335" 
d="M328 464q0 -72 -44 -116t-116 -44t-116 44t-44 116t44 116t116 44t116 -44t44 -116zM212 464q0 28 -11.5 46t-32.5 18t-32.5 -18t-11.5 -46t11.5 -45.5t32.5 -17.5t32.5 17.5t11.5 45.5z" />
    <glyph glyph-name="guillemotright" unicode="&#xbb;" horiz-adv-x="451" 
d="M298 222l-92 164h128l92 -164l-92 -164h-128zM117 222l-92 164h128l92 -164l-92 -164h-128z" />
    <glyph glyph-name="onequarter" unicode="&#xbc;" horiz-adv-x="683" 
d="M541 145v51h90v-51h44v-87h-44v-58h-90v58h-166v59l112 233h102l-94 -205h46zM97 264v233l-87 -42v105l115 54h76v-350h-104zM80 0l420 614h92l-420 -614h-92z" />
    <glyph glyph-name="onehalf" unicode="&#xbd;" horiz-adv-x="699" 
d="M690 0h-271v2l103 138q23 32 33.5 48.5t10.5 34.5q0 15 -10 24t-29 9q-26 0 -52 -14.5t-43 -26.5v101q20 16 53 27.5t75 11.5q54 0 85 -29t31 -77q0 -32 -16.5 -61t-36.5 -58l-27 -38h94v-92zM97 264v233l-87 -42v105l115 54h76v-350h-104zM80 0l420 614h92l-420 -614
h-92z" />
    <glyph glyph-name="threequarters" unicode="&#xbe;" horiz-adv-x="690" 
d="M548 145v51h90v-51h44v-87h-44v-58h-90v58h-166v59l112 233h102l-94 -205h46zM261 614v-2l-67 -134q31 -15 48 -40.5t17 -57.5q0 -29 -10.5 -52t-29 -38.5t-43 -23.5t-52.5 -8q-38 0 -63.5 8.5t-45.5 21.5v95q22 -18 46.5 -28t49.5 -10q48 0 48 35q0 22 -20 31.5t-46 9.5
h-8t-8 -1v2l52 99h-112v93h244zM89 0l420 614h92l-420 -614h-92z" />
    <glyph glyph-name="questiondown" unicode="&#xbf;" horiz-adv-x="394" 
d="M184 105q0 -31 20.5 -48t52.5 -17q34 0 64.5 14t50.5 30v-144q-30 -21 -70 -33.5t-82 -12.5q-45 0 -81.5 13.5t-62.5 37t-40 56.5t-14 72q0 49 19 84t42 61t42 48t19 46h146q0 -35 -16.5 -61.5t-36.5 -49.5t-36.5 -45.5t-16.5 -50.5zM313 436q0 -38 -27 -63t-66 -25
q-40 0 -67.5 25t-27.5 63q0 19 7.5 35.5t20 28.5t30 18.5t37.5 6.5q39 0 66 -25.5t27 -63.5z" />
    <glyph glyph-name="Agrave" unicode="&#xc0;" horiz-adv-x="646" 
d="M639 0h-163l-44 119h-223l-43 -119h-159l234 614h164zM384 251l-63 173l-63 -173h126zM162 796h161l82 -130h-154z" />
    <glyph glyph-name="Aacute" unicode="&#xc1;" horiz-adv-x="646" 
d="M639 0h-163l-44 119h-223l-43 -119h-159l234 614h164zM384 251l-63 173l-63 -173h126zM324 796h161l-89 -130h-154z" />
    <glyph glyph-name="Acircumflex" unicode="&#xc2;" horiz-adv-x="646" 
d="M639 0h-163l-44 119h-223l-43 -119h-159l234 614h164zM384 251l-63 173l-63 -173h126zM364 666l-42 45l-42 -45h-126l108 132h120l108 -132h-126z" />
    <glyph glyph-name="Atilde" unicode="&#xc3;" horiz-adv-x="646" 
d="M639 0h-163l-44 119h-223l-43 -119h-159l234 614h164zM384 251l-63 173l-63 -173h126zM480 809q0 -30 -4.5 -57.5t-15 -48t-27 -32.5t-41.5 -12q-18 0 -33.5 5.5t-29.5 12t-26.5 12t-25.5 5.5q-24 0 -26 -31h-85q0 30 4.5 57t15 48t27 33t41.5 12q18 0 33.5 -5.5
t29.5 -12t26.5 -12t25.5 -5.5q24 0 26 31h85z" />
    <glyph glyph-name="Adieresis" unicode="&#xc4;" horiz-adv-x="646" 
d="M639 0h-163l-44 119h-223l-43 -119h-159l234 614h164zM384 251l-63 173l-63 -173h126zM154 734q0 33 22.5 56t55.5 23q32 0 55.5 -23t23.5 -56t-23.5 -56t-55.5 -23q-33 0 -55.5 23t-22.5 56zM335 734q0 33 23 56t55 23t55.5 -23t23.5 -56t-23.5 -56t-55.5 -23t-55 23
t-23 56z" />
    <glyph glyph-name="Aring" unicode="&#xc5;" horiz-adv-x="646" 
d="M639 0h-163l-44 119h-223l-43 -119h-159l234 614h164zM384 251l-63 173l-63 -173h126zM431 747q0 -22 -8.5 -41t-23 -33.5t-34 -22.5t-42.5 -8t-42.5 8t-34 22.5t-23 33.5t-8.5 41t8.5 41t23 33.5t34 22.5t42.5 8t42.5 -8t34 -22.5t23 -33.5t8.5 -41zM359 747
q0 15 -10 25.5t-26 10.5q-15 0 -25.5 -10.5t-10.5 -25.5t10.5 -25.5t25.5 -10.5q16 0 26 10.5t10 25.5z" />
    <glyph glyph-name="AE" unicode="&#xc6;" horiz-adv-x="898" 
d="M864 476h-261v-96h236v-135h-236v-106h261v-139h-419v119h-202l-66 -119h-170l345 614h512v-138zM445 251v233l-129 -233h129z" />
    <glyph glyph-name="Ccedilla" unicode="&#xc7;" horiz-adv-x="529" 
d="M22 307q0 72 23 130.5t64.5 100t99.5 64t128 22.5q49 0 88 -11t68 -31v-156q-65 50 -143 50q-77 0 -122 -44.5t-45 -124.5q0 -79 45 -123.5t122 -44.5q38 0 74 11.5t69 37.5v-156q-29 -20 -68 -31t-88 -11q-70 0 -128 22.5t-99.5 64t-64.5 100t-23 130.5zM267 -40h134
l-70 -141h-133z" />
    <glyph glyph-name="Egrave" unicode="&#xc8;" horiz-adv-x="519" 
d="M485 476h-281v-96h257v-135h-257v-106h281v-139h-439v614h439v-138zM112 796h161l82 -130h-154z" />
    <glyph glyph-name="Eacute" unicode="&#xc9;" horiz-adv-x="519" 
d="M485 476h-281v-96h257v-135h-257v-106h281v-139h-439v614h439v-138zM272 796h161l-89 -130h-154z" />
    <glyph glyph-name="Ecircumflex" unicode="&#xca;" horiz-adv-x="519" 
d="M485 476h-281v-96h257v-135h-257v-106h281v-139h-439v614h439v-138zM313 666l-42 45l-42 -45h-126l108 132h120l108 -132h-126z" />
    <glyph glyph-name="Edieresis" unicode="&#xcb;" horiz-adv-x="519" 
d="M485 476h-281v-96h257v-135h-257v-106h281v-139h-439v614h439v-138zM102 734q0 33 22.5 56t55.5 23q32 0 55.5 -23t23.5 -56t-23.5 -56t-55.5 -23q-33 0 -55.5 23t-22.5 56zM283 734q0 33 23 56t55 23t55.5 -23t23.5 -56t-23.5 -56t-55.5 -23t-55 23t-23 56z" />
    <glyph glyph-name="Igrave" unicode="&#xcc;" horiz-adv-x="253" 
d="M46 0v614h161v-614h-161zM-33 796h161l82 -130h-154z" />
    <glyph glyph-name="Iacute" unicode="&#xcd;" horiz-adv-x="253" 
d="M46 0v614h161v-614h-161zM128 796h161l-89 -130h-154z" />
    <glyph glyph-name="Icircumflex" unicode="&#xce;" horiz-adv-x="253" 
d="M46 0v614h161v-614h-161zM170 666l-42 45l-42 -45h-126l108 132h120l108 -132h-126z" />
    <glyph glyph-name="Idieresis" unicode="&#xcf;" horiz-adv-x="253" 
d="M46 0v614h161v-614h-161zM-41 734q0 33 22.5 56t55.5 23q32 0 55.5 -23t23.5 -56t-23.5 -56t-55.5 -23q-33 0 -55.5 23t-22.5 56zM140 734q0 33 23 56t55 23t55.5 -23t23.5 -56t-23.5 -56t-55.5 -23t-55 23t-23 56z" />
    <glyph glyph-name="Eth" unicode="&#xd0;" horiz-adv-x="626" 
d="M63 376v238h232q72 0 129.5 -21.5t97.5 -61.5t61.5 -97t21.5 -127t-21.5 -127t-61.5 -97t-97.5 -61.5t-129.5 -21.5h-232v252h-46v124h46zM287 139q77 0 118 45t41 123t-41 123.5t-118 45.5h-66v-100h87v-124h-87v-113h66z" />
    <glyph glyph-name="Ntilde" unicode="&#xd1;" horiz-adv-x="634" 
d="M458 0l-257 359v-359h-155v614h150l237 -338v338h155v-614h-130zM474 809q0 -30 -4.5 -57.5t-15 -48t-27 -32.5t-41.5 -12q-18 0 -33.5 5.5t-29.5 12t-26.5 12t-25.5 5.5q-24 0 -26 -31h-85q0 30 4.5 57t15 48t27 33t41.5 12q18 0 33.5 -5.5t29.5 -12t26.5 -12t25.5 -5.5
q24 0 26 31h85z" />
    <glyph glyph-name="Ograve" unicode="&#xd2;" horiz-adv-x="643" 
d="M622 307q0 -69 -22 -127t-62 -100t-95 -66t-122 -24q-66 0 -121 24t-94.5 66t-61.5 100t-22 127t22 127t61.5 100.5t94.5 66t121 23.5q67 0 122 -23.5t95 -66t62 -100.5t22 -127zM460 307q0 80 -38 128t-101 48t-100 -48t-37 -128t37 -128t100 -48t101 48t38 128z
M161 796h161l82 -130h-154z" />
    <glyph glyph-name="Oacute" unicode="&#xd3;" horiz-adv-x="643" 
d="M622 307q0 -69 -22 -127t-62 -100t-95 -66t-122 -24q-66 0 -121 24t-94.5 66t-61.5 100t-22 127t22 127t61.5 100.5t94.5 66t121 23.5q67 0 122 -23.5t95 -66t62 -100.5t22 -127zM460 307q0 80 -38 128t-101 48t-100 -48t-37 -128t37 -128t100 -48t101 48t38 128z
M322 796h161l-89 -130h-154z" />
    <glyph glyph-name="Ocircumflex" unicode="&#xd4;" horiz-adv-x="643" 
d="M622 307q0 -69 -22 -127t-62 -100t-95 -66t-122 -24q-66 0 -121 24t-94.5 66t-61.5 100t-22 127t22 127t61.5 100.5t94.5 66t121 23.5q67 0 122 -23.5t95 -66t62 -100.5t22 -127zM460 307q0 80 -38 128t-101 48t-100 -48t-37 -128t37 -128t100 -48t101 48t38 128z
M363 666l-42 45l-42 -45h-126l108 132h120l108 -132h-126z" />
    <glyph glyph-name="Otilde" unicode="&#xd5;" horiz-adv-x="643" 
d="M622 307q0 -69 -22 -127t-62 -100t-95 -66t-122 -24q-66 0 -121 24t-94.5 66t-61.5 100t-22 127t22 127t61.5 100.5t94.5 66t121 23.5q67 0 122 -23.5t95 -66t62 -100.5t22 -127zM460 307q0 80 -38 128t-101 48t-100 -48t-37 -128t37 -128t100 -48t101 48t38 128z
M478 809q0 -30 -4.5 -57.5t-15 -48t-27 -32.5t-41.5 -12q-18 0 -33.5 5.5t-29.5 12t-26.5 12t-25.5 5.5q-24 0 -26 -31h-85q0 30 4.5 57t15 48t27 33t41.5 12q18 0 33.5 -5.5t29.5 -12t26.5 -12t25.5 -5.5q24 0 26 31h85z" />
    <glyph glyph-name="Odieresis" unicode="&#xd6;" horiz-adv-x="643" 
d="M622 307q0 -69 -22 -127t-62 -100t-95 -66t-122 -24q-66 0 -121 24t-94.5 66t-61.5 100t-22 127t22 127t61.5 100.5t94.5 66t121 23.5q67 0 122 -23.5t95 -66t62 -100.5t22 -127zM460 307q0 80 -38 128t-101 48t-100 -48t-37 -128t37 -128t100 -48t101 48t38 128z
M153 734q0 33 22.5 56t55.5 23q32 0 55.5 -23t23.5 -56t-23.5 -56t-55.5 -23q-33 0 -55.5 23t-22.5 56zM334 734q0 33 23 56t55 23t55.5 -23t23.5 -56t-23.5 -56t-55.5 -23t-55 23t-23 56z" />
    <glyph glyph-name="multiply" unicode="&#xd7;" horiz-adv-x="494" 
d="M127 499l120 -120l120 120l82 -81l-121 -120l121 -120l-82 -81l-120 120l-120 -120l-82 81l121 120l-121 120z" />
    <glyph glyph-name="Oslash" unicode="&#xd8;" horiz-adv-x="652" 
d="M92 100q-32 42 -49 94t-17 113q0 69 22 127t61.5 100.5t94.5 66t122 23.5q54 0 99.5 -15.5t83.5 -44.5l54 61l56 -47l-59 -65q32 -41 49 -93t17 -113q0 -69 -22 -127t-61.5 -100t-95 -66t-121.5 -24q-54 0 -100 15t-83 44l-53 -60l-56 47zM188 307q0 -24 3.5 -45t9.5 -40
l208 232q-34 29 -83 29q-63 0 -100.5 -48t-37.5 -128zM464 307q0 23 -3.5 44.5t-9.5 39.5l-208 -232q34 -28 83 -28q62 0 100 48t38 128z" />
    <glyph glyph-name="Ugrave" unicode="&#xd9;" horiz-adv-x="613" 
d="M307 -10q-61 0 -110.5 17t-84.5 50t-54 82t-19 112v363h160v-349q0 -66 28.5 -99t79.5 -33q50 0 78.5 33t28.5 99v349h160v-364q0 -63 -19 -111.5t-54 -81.5t-84 -50t-110 -17zM147 796h161l82 -130h-154z" />
    <glyph glyph-name="Uacute" unicode="&#xda;" horiz-adv-x="613" 
d="M307 -10q-61 0 -110.5 17t-84.5 50t-54 82t-19 112v363h160v-349q0 -66 28.5 -99t79.5 -33q50 0 78.5 33t28.5 99v349h160v-364q0 -63 -19 -111.5t-54 -81.5t-84 -50t-110 -17zM308 796h161l-89 -130h-154z" />
    <glyph glyph-name="Ucircumflex" unicode="&#xdb;" horiz-adv-x="613" 
d="M307 -10q-61 0 -110.5 17t-84.5 50t-54 82t-19 112v363h160v-349q0 -66 28.5 -99t79.5 -33q50 0 78.5 33t28.5 99v349h160v-364q0 -63 -19 -111.5t-54 -81.5t-84 -50t-110 -17zM349 666l-42 45l-42 -45h-126l108 132h120l108 -132h-126z" />
    <glyph glyph-name="Udieresis" unicode="&#xdc;" horiz-adv-x="613" 
d="M307 -10q-61 0 -110.5 17t-84.5 50t-54 82t-19 112v363h160v-349q0 -66 28.5 -99t79.5 -33q50 0 78.5 33t28.5 99v349h160v-364q0 -63 -19 -111.5t-54 -81.5t-84 -50t-110 -17zM138 734q0 33 22.5 56t55.5 23q32 0 55.5 -23t23.5 -56t-23.5 -56t-55.5 -23q-33 0 -55.5 23
t-22.5 56zM319 734q0 33 23 56t55 23t55.5 -23t23.5 -56t-23.5 -56t-55.5 -23t-55 23t-23 56z" />
    <glyph glyph-name="Yacute" unicode="&#xdd;" horiz-adv-x="612" 
d="M607 614l-222 -396v-218h-161v218l-218 396h174l129 -240l129 240h169zM307 796h161l-89 -130h-154z" />
    <glyph glyph-name="Thorn" unicode="&#xde;" horiz-adv-x="561" 
d="M205 0h-159v614h159v-89h110q50 0 91 -14t70.5 -41t45.5 -66.5t16 -90.5t-16 -90.5t-45.5 -66t-70.5 -40.5t-91 -14h-110v-102zM382 313q0 35 -20 56t-64 21h-93v-154h93q44 0 64 21t20 56z" />
    <glyph glyph-name="germandbls" unicode="&#xdf;" horiz-adv-x="543" 
d="M42 476q0 87 46 135t129 48q23 0 41.5 -3.5t32.5 -8.5v-128q-17 9 -38 9q-26 0 -40.5 -13.5t-14.5 -40.5v-24h327v-4l-94 -213q39 -23 65.5 -66t26.5 -101q0 -59 -22 -103t-60.5 -73.5t-90.5 -44t-113 -14.5v126q64 2 102 27.5t38 82.5q0 41 -31 68t-82 44v4l59 145h-125
v-328h-156v476z" />
    <glyph glyph-name="agrave" unicode="&#xe0;" horiz-adv-x="479" 
d="M289 271q0 26 -24 43t-72 17q-32 0 -64 -8t-59 -24v126q28 15 70.5 25t90.5 10q100 0 154.5 -46t54.5 -136v-278h-151v23q-11 -11 -40.5 -21t-65.5 -10q-33 0 -63 9.5t-52.5 27.5t-36 45t-13.5 63q0 33 13.5 59t36.5 45t55 29t68 10q29 0 56.5 -7.5t41.5 -17.5v16z
M289 152q-8 14 -25 22.5t-38 8.5q-23 0 -42.5 -10t-19.5 -33t19.5 -33.5t42.5 -10.5q21 0 38 8t25 22v26zM90 650h149l82 -150h-144z" />
    <glyph glyph-name="aacute" unicode="&#xe1;" horiz-adv-x="479" 
d="M289 271q0 26 -24 43t-72 17q-32 0 -64 -8t-59 -24v126q28 15 70.5 25t90.5 10q100 0 154.5 -46t54.5 -136v-278h-151v23q-11 -11 -40.5 -21t-65.5 -10q-33 0 -63 9.5t-52.5 27.5t-36 45t-13.5 63q0 33 13.5 59t36.5 45t55 29t68 10q29 0 56.5 -7.5t41.5 -17.5v16z
M289 152q-8 14 -25 22.5t-38 8.5q-23 0 -42.5 -10t-19.5 -33t19.5 -33.5t42.5 -10.5q21 0 38 8t25 22v26zM250 650h149l-87 -150h-144z" />
    <glyph glyph-name="acircumflex" unicode="&#xe2;" horiz-adv-x="479" 
d="M289 271q0 26 -24 43t-72 17q-32 0 -64 -8t-59 -24v126q28 15 70.5 25t90.5 10q100 0 154.5 -46t54.5 -136v-278h-151v23q-11 -11 -40.5 -21t-65.5 -10q-33 0 -63 9.5t-52.5 27.5t-36 45t-13.5 63q0 33 13.5 59t36.5 45t55 29t68 10q29 0 56.5 -7.5t41.5 -17.5v16z
M289 152q-8 14 -25 22.5t-38 8.5q-23 0 -42.5 -10t-19.5 -33t19.5 -33.5t42.5 -10.5q21 0 38 8t25 22v26zM285 498l-40 55l-40 -55h-116l96 151h120l96 -151h-116z" />
    <glyph glyph-name="atilde" unicode="&#xe3;" horiz-adv-x="479" 
d="M289 271q0 26 -24 43t-72 17q-32 0 -64 -8t-59 -24v126q28 15 70.5 25t90.5 10q100 0 154.5 -46t54.5 -136v-278h-151v23q-11 -11 -40.5 -21t-65.5 -10q-33 0 -63 9.5t-52.5 27.5t-36 45t-13.5 63q0 33 13.5 59t36.5 45t55 29t68 10q29 0 56.5 -7.5t41.5 -17.5v16z
M289 152q-8 14 -25 22.5t-38 8.5q-23 0 -42.5 -10t-19.5 -33t19.5 -33.5t42.5 -10.5q21 0 38 8t25 22v26zM394 647q0 -30 -4.5 -57.5t-15 -48t-27 -32.5t-41.5 -12q-17 0 -30.5 5.5t-24.5 12.5t-21.5 12.5t-22.5 5.5t-18.5 -9t-6.5 -24h-86q0 30 4.5 57.5t15 48t27 32.5
t41.5 12q17 0 30.5 -5.5t24.5 -12.5t21.5 -12.5t22.5 -5.5q11 0 18 9t7 24h86z" />
    <glyph glyph-name="adieresis" unicode="&#xe4;" horiz-adv-x="479" 
d="M289 271q0 26 -24 43t-72 17q-32 0 -64 -8t-59 -24v126q28 15 70.5 25t90.5 10q100 0 154.5 -46t54.5 -136v-278h-151v23q-11 -11 -40.5 -21t-65.5 -10q-33 0 -63 9.5t-52.5 27.5t-36 45t-13.5 63q0 33 13.5 59t36.5 45t55 29t68 10q29 0 56.5 -7.5t41.5 -17.5v16z
M289 152q-8 14 -25 22.5t-38 8.5q-23 0 -42.5 -10t-19.5 -33t19.5 -33.5t42.5 -10.5q21 0 38 8t25 22v26zM80 567q0 32 22.5 54.5t54.5 22.5t54.5 -22.5t22.5 -54.5t-22.5 -54t-54.5 -22t-54.5 22t-22.5 54zM257 567q0 32 22 54.5t54 22.5q16 0 30 -6t24.5 -16.5t17 -24.5
t6.5 -30q0 -32 -23 -54t-55 -22t-54 22t-22 54z" />
    <glyph glyph-name="aring" unicode="&#xe5;" horiz-adv-x="479" 
d="M289 271q0 26 -24 43t-72 17q-32 0 -64 -8t-59 -24v126q28 15 70.5 25t90.5 10q100 0 154.5 -46t54.5 -136v-278h-151v23q-11 -11 -40.5 -21t-65.5 -10q-33 0 -63 9.5t-52.5 27.5t-36 45t-13.5 63q0 33 13.5 59t36.5 45t55 29t68 10q29 0 56.5 -7.5t41.5 -17.5v16z
M289 152q-8 14 -25 22.5t-38 8.5q-23 0 -42.5 -10t-19.5 -33t19.5 -33.5t42.5 -10.5q21 0 38 8t25 22v26zM353 589q0 -22 -8.5 -41t-23 -33t-34 -22t-42.5 -8t-42.5 8t-34 22t-23 33t-8.5 41t8.5 41.5t23 33.5t34 22.5t42.5 8.5t42.5 -8.5t34 -22.5t23 -33.5t8.5 -41.5z
M281 589q0 16 -10 26.5t-26 10.5q-15 0 -25.5 -10.5t-10.5 -26.5q0 -14 10.5 -24.5t25.5 -10.5q16 0 26 10.5t10 24.5z" />
    <glyph glyph-name="ae" unicode="&#xe6;" horiz-adv-x="724" 
d="M517 -10q-104 0 -169 57q-31 -25 -69 -40.5t-94 -15.5q-33 0 -63 9.5t-53 27t-36.5 43.5t-13.5 59q0 35 15 62.5t40.5 46t60.5 28t74 9.5h77v5q-5 23 -28.5 37.5t-66.5 14.5q-32 0 -62.5 -9t-56.5 -25v126q27 15 67.5 25t86.5 10q97 0 141 -50q23 23 57 36.5t72 13.5
q51 0 90 -16.5t65 -46.5t39.5 -71.5t13.5 -91.5v-46h-280q11 -40 43 -57.5t75 -17.5q36 0 65.5 8t64.5 28v-119q-27 -20 -67 -30t-88 -10zM218 105q25 0 43 9.5t27 26.5v47h-64q-24 0 -42.5 -9.5t-18.5 -32.5q0 -21 16.5 -31t38.5 -10zM497 344q-27 0 -46.5 -17.5
t-27.5 -50.5h140q-2 29 -19 48.5t-47 19.5z" />
    <glyph glyph-name="ccedilla" unicode="&#xe7;" horiz-adv-x="400" 
d="M18 225q0 54 17.5 97.5t49 74t74.5 47t94 16.5q35 0 66 -7.5t55 -24.5v-132q-44 32 -97 32q-44 0 -74 -26t-30 -77t30 -77t74 -26q53 0 97 32v-132q-24 -17 -55 -24.5t-66 -7.5q-51 0 -94 16.5t-74.5 47t-49 74t-17.5 97.5zM182 -40h134l-70 -141h-133z" />
    <glyph glyph-name="egrave" unicode="&#xe8;" horiz-adv-x="468" 
d="M170 189q10 -41 40.5 -58.5t74.5 -17.5q36 0 66 8t64 28v-119q-26 -20 -66 -30t-89 -10q-54 0 -98.5 16t-76.5 46t-49.5 73t-17.5 97q0 53 16.5 96.5t46 75t69 49t86.5 17.5q52 0 92 -16.5t66 -46t39.5 -71t13.5 -91.5v-46h-277zM242 341q-53 0 -70 -64h135
q-3 29 -19.5 46.5t-45.5 17.5zM89 650h149l82 -150h-144z" />
    <glyph glyph-name="eacute" unicode="&#xe9;" horiz-adv-x="468" 
d="M170 189q10 -41 40.5 -58.5t74.5 -17.5q36 0 66 8t64 28v-119q-26 -20 -66 -30t-89 -10q-54 0 -98.5 16t-76.5 46t-49.5 73t-17.5 97q0 53 16.5 96.5t46 75t69 49t86.5 17.5q52 0 92 -16.5t66 -46t39.5 -71t13.5 -91.5v-46h-277zM242 341q-53 0 -70 -64h135
q-3 29 -19.5 46.5t-45.5 17.5zM249 650h149l-87 -150h-144z" />
    <glyph glyph-name="ecircumflex" unicode="&#xea;" horiz-adv-x="468" 
d="M170 189q10 -41 40.5 -58.5t74.5 -17.5q36 0 66 8t64 28v-119q-26 -20 -66 -30t-89 -10q-54 0 -98.5 16t-76.5 46t-49.5 73t-17.5 97q0 53 16.5 96.5t46 75t69 49t86.5 17.5q52 0 92 -16.5t66 -46t39.5 -71t13.5 -91.5v-46h-277zM242 341q-53 0 -70 -64h135
q-3 29 -19.5 46.5t-45.5 17.5zM285 498l-40 55l-40 -55h-116l96 151h120l96 -151h-116z" />
    <glyph glyph-name="edieresis" unicode="&#xeb;" horiz-adv-x="468" 
d="M170 189q10 -41 40.5 -58.5t74.5 -17.5q36 0 66 8t64 28v-119q-26 -20 -66 -30t-89 -10q-54 0 -98.5 16t-76.5 46t-49.5 73t-17.5 97q0 53 16.5 96.5t46 75t69 49t86.5 17.5q52 0 92 -16.5t66 -46t39.5 -71t13.5 -91.5v-46h-277zM242 341q-53 0 -70 -64h135
q-3 29 -19.5 46.5t-45.5 17.5zM80 567q0 32 22.5 54.5t54.5 22.5t54.5 -22.5t22.5 -54.5t-22.5 -54t-54.5 -22t-54.5 22t-22.5 54zM257 567q0 32 22 54.5t54 22.5q16 0 30 -6t24.5 -16.5t17 -24.5t6.5 -30q0 -32 -23 -54t-55 -22t-54 22t-22 54z" />
    <glyph glyph-name="igrave" unicode="&#xec;" horiz-adv-x="242" 
d="M42 0v450h157v-450h-157zM-34 650h149l82 -150h-144z" />
    <glyph glyph-name="iacute" unicode="&#xed;" horiz-adv-x="242" 
d="M42 0v450h157v-450h-157zM127 650h149l-87 -150h-144z" />
    <glyph glyph-name="icircumflex" unicode="&#xee;" horiz-adv-x="242" 
d="M148 498l-27 60l-28 -60h-111l79 151h120l79 -151h-112zM42 0v450h157v-450h-157z" />
    <glyph glyph-name="idieresis" unicode="&#xef;" horiz-adv-x="242" 
d="M-41 567q0 32 22 54.5t54 22.5t54.5 -22.5t22.5 -54.5t-22.5 -54t-54.5 -22t-54 22t-22 54zM130 567q0 32 22.5 54.5t54.5 22.5t54.5 -22.5t22.5 -54.5t-22.5 -54t-54.5 -22t-54.5 22t-22.5 54zM42 0v450h157v-450h-157z" />
    <glyph glyph-name="eth" unicode="&#xf0;" horiz-adv-x="497" 
d="M169 561q-26 21 -53.5 42.5t-56.5 42.5v4h192q15 -11 28.5 -22.5t27.5 -23.5l79 25l25 -66l-49 -16q116 -136 116 -305q0 -59 -16.5 -105.5t-47 -79t-73 -50t-93.5 -17.5t-93.5 17t-72.5 48t-47 74t-17 95t17 94.5t46.5 72.5t70 46.5t87.5 16.5q14 0 26 -4t20 -10h3
q-9 14 -23 30.5t-34 35.5l-98 -30l-25 66zM324 223q0 47 -19.5 75.5t-56.5 28.5q-36 0 -55.5 -28.5t-19.5 -75.5q0 -46 19.5 -74.5t55.5 -28.5q37 0 56.5 28.5t19.5 74.5z" />
    <glyph glyph-name="ntilde" unicode="&#xf1;" horiz-adv-x="519" 
d="M199 450v-39q19 21 50.5 35t70.5 14q75 0 117 -45t42 -120v-295h-156v257q0 28 -14.5 46t-44.5 18q-23 0 -41 -13t-24 -36v-272h-157v450h157zM415 647q0 -30 -4.5 -57.5t-15 -48t-27 -32.5t-41.5 -12q-17 0 -30.5 5.5t-24.5 12.5t-21.5 12.5t-22.5 5.5t-18.5 -9
t-6.5 -24h-86q0 30 4.5 57.5t15 48t27 32.5t41.5 12q17 0 30.5 -5.5t24.5 -12.5t21.5 -12.5t22.5 -5.5q11 0 18 9t7 24h86z" />
    <glyph glyph-name="ograve" unicode="&#xf2;" horiz-adv-x="497" 
d="M478 225q0 -52 -16.5 -95.5t-47 -74.5t-73 -48t-93.5 -17t-93.5 17t-72.5 48t-47 74.5t-17 95.5t17 95.5t47 74.5t72.5 48t93.5 17t93.5 -17t73 -48t47 -74.5t16.5 -95.5zM324 225q0 47 -19.5 76.5t-56.5 29.5q-36 0 -55.5 -29.5t-19.5 -76.5t19.5 -76t55.5 -29
q37 0 56.5 29t19.5 76zM94 650h149l82 -150h-144z" />
    <glyph glyph-name="oacute" unicode="&#xf3;" horiz-adv-x="497" 
d="M478 225q0 -52 -16.5 -95.5t-47 -74.5t-73 -48t-93.5 -17t-93.5 17t-72.5 48t-47 74.5t-17 95.5t17 95.5t47 74.5t72.5 48t93.5 17t93.5 -17t73 -48t47 -74.5t16.5 -95.5zM324 225q0 47 -19.5 76.5t-56.5 29.5q-36 0 -55.5 -29.5t-19.5 -76.5t19.5 -76t55.5 -29
q37 0 56.5 29t19.5 76zM254 650h149l-87 -150h-144z" />
    <glyph glyph-name="ocircumflex" unicode="&#xf4;" horiz-adv-x="497" 
d="M478 225q0 -52 -16.5 -95.5t-47 -74.5t-73 -48t-93.5 -17t-93.5 17t-72.5 48t-47 74.5t-17 95.5t17 95.5t47 74.5t72.5 48t93.5 17t93.5 -17t73 -48t47 -74.5t16.5 -95.5zM324 225q0 47 -19.5 76.5t-56.5 29.5q-36 0 -55.5 -29.5t-19.5 -76.5t19.5 -76t55.5 -29
q37 0 56.5 29t19.5 76zM289 498l-40 55l-40 -55h-116l96 151h120l96 -151h-116z" />
    <glyph glyph-name="otilde" unicode="&#xf5;" horiz-adv-x="497" 
d="M478 225q0 -52 -16.5 -95.5t-47 -74.5t-73 -48t-93.5 -17t-93.5 17t-72.5 48t-47 74.5t-17 95.5t17 95.5t47 74.5t72.5 48t93.5 17t93.5 -17t73 -48t47 -74.5t16.5 -95.5zM324 225q0 47 -19.5 76.5t-56.5 29.5q-36 0 -55.5 -29.5t-19.5 -76.5t19.5 -76t55.5 -29
q37 0 56.5 29t19.5 76zM398 647q0 -30 -4.5 -57.5t-15 -48t-27 -32.5t-41.5 -12q-17 0 -30.5 5.5t-24.5 12.5t-21.5 12.5t-22.5 5.5t-18.5 -9t-6.5 -24h-86q0 30 4.5 57.5t15 48t27 32.5t41.5 12q17 0 30.5 -5.5t24.5 -12.5t21.5 -12.5t22.5 -5.5q11 0 18 9t7 24h86z" />
    <glyph glyph-name="odieresis" unicode="&#xf6;" horiz-adv-x="497" 
d="M478 225q0 -52 -16.5 -95.5t-47 -74.5t-73 -48t-93.5 -17t-93.5 17t-72.5 48t-47 74.5t-17 95.5t17 95.5t47 74.5t72.5 48t93.5 17t93.5 -17t73 -48t47 -74.5t16.5 -95.5zM324 225q0 47 -19.5 76.5t-56.5 29.5q-36 0 -55.5 -29.5t-19.5 -76.5t19.5 -76t55.5 -29
q37 0 56.5 29t19.5 76zM84 567q0 32 22.5 54.5t54.5 22.5t54.5 -22.5t22.5 -54.5t-22.5 -54t-54.5 -22t-54.5 22t-22.5 54zM261 567q0 32 22 54.5t54 22.5q16 0 30 -6t24.5 -16.5t17 -24.5t6.5 -30q0 -32 -23 -54t-55 -22t-54 22t-22 54z" />
    <glyph glyph-name="divide" unicode="&#xf7;" horiz-adv-x="556" 
d="M505 357v-116h-454v116h454zM198 479q0 33 23.5 56t56.5 23q34 0 57.5 -23t23.5 -56t-23.5 -56t-57.5 -23q-33 0 -56.5 23t-23.5 56zM198 119q0 33 23.5 56t56.5 23q34 0 57.5 -23t23.5 -56t-23.5 -56t-57.5 -23q-33 0 -56.5 23t-23.5 56z" />
    <glyph glyph-name="oslash" unicode="&#xf8;" horiz-adv-x="507" 
d="M75 68q-25 31 -38.5 70t-13.5 87q0 52 17 95.5t47 74.5t72.5 48t93.5 17q39 0 73 -10t62 -29l42 47l45 -37l-44 -50q25 -30 38.5 -69.5t13.5 -86.5q0 -52 -16.5 -95.5t-47 -74.5t-73 -48t-93.5 -17q-40 0 -73.5 10t-61.5 29l-43 -48l-45 37zM332 225q0 19 -5 39
l-118 -132q19 -16 44 -16q37 0 58 31t21 78zM175 225q0 -23 4 -39l118 132q-19 16 -44 16q-36 0 -57 -31t-21 -78z" />
    <glyph glyph-name="ugrave" unicode="&#xf9;" horiz-adv-x="517" 
d="M318 0v39q-18 -21 -50 -35t-70 -14q-75 0 -116.5 45t-41.5 120v295h156v-258q0 -29 14 -47t44 -18q22 0 40 13.5t24 36.5v273h157v-450h-157zM104 650h149l82 -150h-144z" />
    <glyph glyph-name="uacute" unicode="&#xfa;" horiz-adv-x="517" 
d="M318 0v39q-18 -21 -50 -35t-70 -14q-75 0 -116.5 45t-41.5 120v295h156v-258q0 -29 14 -47t44 -18q22 0 40 13.5t24 36.5v273h157v-450h-157zM264 650h149l-87 -150h-144z" />
    <glyph glyph-name="ucircumflex" unicode="&#xfb;" horiz-adv-x="517" 
d="M318 0v39q-18 -21 -50 -35t-70 -14q-75 0 -116.5 45t-41.5 120v295h156v-258q0 -29 14 -47t44 -18q22 0 40 13.5t24 36.5v273h157v-450h-157zM298 498l-40 55l-40 -55h-116l96 151h120l96 -151h-116z" />
    <glyph glyph-name="udieresis" unicode="&#xfc;" horiz-adv-x="517" 
d="M318 0v39q-18 -21 -50 -35t-70 -14q-75 0 -116.5 45t-41.5 120v295h156v-258q0 -29 14 -47t44 -18q22 0 40 13.5t24 36.5v273h157v-450h-157zM93 567q0 32 22.5 54.5t54.5 22.5t54.5 -22.5t22.5 -54.5t-22.5 -54t-54.5 -22t-54.5 22t-22.5 54zM270 567q0 32 22 54.5
t54 22.5q16 0 30 -6t24.5 -16.5t17 -24.5t6.5 -30q0 -32 -23 -54t-55 -22t-54 22t-22 54z" />
    <glyph glyph-name="yacute" unicode="&#xfd;" horiz-adv-x="502" 
d="M175 11l-168 439h163l86 -256l84 256h156l-232 -609h-155zM262 650h149l-87 -150h-144z" />
    <glyph glyph-name="thorn" unicode="&#xfe;" horiz-adv-x="529" 
d="M42 -159v809h157v-236q16 18 46 32t65 14q49 0 86.5 -18.5t63 -50.5t38.5 -75t13 -91t-13 -90.5t-38.5 -75t-63 -51t-86.5 -18.5q-35 0 -65 14t-46 32v-195h-157zM199 166q9 -19 27.5 -30.5t41.5 -11.5q41 0 63.5 28.5t22.5 72.5t-22.5 73t-63.5 29q-23 0 -41.5 -12
t-27.5 -30v-119z" />
    <glyph glyph-name="ydieresis" unicode="&#xff;" horiz-adv-x="502" 
d="M175 11l-168 439h163l86 -256l84 256h156l-232 -609h-155zM91 567q0 32 22.5 54.5t54.5 22.5t54.5 -22.5t22.5 -54.5t-22.5 -54t-54.5 -22t-54.5 22t-22.5 54zM268 567q0 32 22 54.5t54 22.5q16 0 30 -6t24.5 -16.5t17 -24.5t6.5 -30q0 -32 -23 -54t-55 -22t-54 22
t-22 54z" />
    <glyph glyph-name="Amacron" unicode="&#x100;" horiz-adv-x="646" 
d="M639 0h-163l-44 119h-223l-43 -119h-159l234 614h164zM384 251l-63 173l-63 -173h126zM456 774v-108h-265v108h265z" />
    <glyph glyph-name="amacron" unicode="&#x101;" horiz-adv-x="479" 
d="M289 271q0 26 -24 43t-72 17q-32 0 -64 -8t-59 -24v126q28 15 70.5 25t90.5 10q100 0 154.5 -46t54.5 -136v-278h-151v23q-11 -11 -40.5 -21t-65.5 -10q-33 0 -63 9.5t-52.5 27.5t-36 45t-13.5 63q0 33 13.5 59t36.5 45t55 29t68 10q29 0 56.5 -7.5t41.5 -17.5v16z
M289 152q-8 14 -25 22.5t-38 8.5q-23 0 -42.5 -10t-19.5 -33t19.5 -33.5t42.5 -10.5q21 0 38 8t25 22v26zM372 612v-108h-253v108h253z" />
    <glyph glyph-name="Abreve" unicode="&#x102;" horiz-adv-x="646" 
d="M639 0h-163l-44 119h-223l-43 -119h-159l234 614h164zM384 251l-63 173l-63 -173h126zM323 658q-63 0 -103.5 37t-40.5 109h108q0 -21 9.5 -31.5t26.5 -10.5q36 0 36 42h108q0 -72 -40.5 -109t-103.5 -37z" />
    <glyph glyph-name="abreve" unicode="&#x103;" horiz-adv-x="479" 
d="M289 271q0 26 -24 43t-72 17q-32 0 -64 -8t-59 -24v126q28 15 70.5 25t90.5 10q100 0 154.5 -46t54.5 -136v-278h-151v23q-11 -11 -40.5 -21t-65.5 -10q-33 0 -63 9.5t-52.5 27.5t-36 45t-13.5 63q0 33 13.5 59t36.5 45t55 29t68 10q29 0 56.5 -7.5t41.5 -17.5v16z
M289 152q-8 14 -25 22.5t-38 8.5q-23 0 -42.5 -10t-19.5 -33t19.5 -33.5t42.5 -10.5q21 0 38 8t25 22v26zM245 488q-62 0 -102.5 38t-40.5 112h108q0 -47 35 -47q36 0 36 47h107q0 -74 -40.5 -112t-102.5 -38z" />
    <glyph glyph-name="Aogonek" unicode="&#x104;" horiz-adv-x="646" 
d="M639 0l-25 -30t-16 -19.5t-8.5 -13.5t-2.5 -12q0 -19 20 -19q8 0 15.5 3.5t19.5 11.5v-87q-14 -8 -29.5 -13.5t-35.5 -5.5q-40 0 -66 20t-26 59q0 29 16 54t39 52h-64l-44 119h-223l-43 -119h-159l234 614h164zM384 251l-63 173l-63 -173h126z" />
    <glyph glyph-name="aogonek" unicode="&#x105;" horiz-adv-x="479" 
d="M289 152q-8 14 -25 22.5t-38 8.5q-23 0 -42.5 -10t-19.5 -33t19.5 -33.5t42.5 -10.5q21 0 38 8t25 22v26zM289 23q-11 -11 -40.5 -21t-65.5 -10q-33 0 -63 9.5t-52.5 27.5t-36 45t-13.5 63q0 33 13.5 59t36.5 45t55 29t68 10q29 0 56.5 -7.5t41.5 -17.5v16q0 26 -24 43
t-72 17q-32 0 -64 -8t-59 -24v126q28 15 70.5 25t90.5 10q100 0 154.5 -46t54.5 -136v-278l-25 -30t-16 -19.5t-8.5 -13.5t-2.5 -12q0 -19 20 -19q9 0 16 3.5t19 11.5v-87q-14 -8 -29 -13.5t-36 -5.5q-40 0 -66 20t-26 59q0 29 16 54t39 52h-52v23z" />
    <glyph glyph-name="Cacute" unicode="&#x106;" horiz-adv-x="529" 
d="M22 307q0 72 23 130.5t64.5 100t99.5 64t128 22.5q49 0 88 -11t68 -31v-156q-65 50 -143 50q-77 0 -122 -44.5t-45 -124.5q0 -79 45 -123.5t122 -44.5q38 0 74 11.5t69 37.5v-156q-29 -20 -68 -31t-88 -11q-70 0 -128 22.5t-99.5 64t-64.5 100t-23 130.5zM335 796h161
l-89 -130h-154z" />
    <glyph glyph-name="cacute" unicode="&#x107;" horiz-adv-x="400" 
d="M18 225q0 54 17.5 97.5t49 74t74.5 47t94 16.5q35 0 66 -7.5t55 -24.5v-132q-44 32 -97 32q-44 0 -74 -26t-30 -77t30 -77t74 -26q53 0 97 32v-132q-24 -17 -55 -24.5t-66 -7.5q-51 0 -94 16.5t-74.5 47t-49 74t-17.5 97.5zM252 650h149l-87 -150h-144z" />
    <glyph glyph-name="Ccircumflex" unicode="&#x108;" horiz-adv-x="529" 
d="M22 307q0 72 23 130.5t64.5 100t99.5 64t128 22.5q49 0 88 -11t68 -31v-156q-65 50 -143 50q-77 0 -122 -44.5t-45 -124.5q0 -79 45 -123.5t122 -44.5q38 0 74 11.5t69 37.5v-156q-29 -20 -68 -31t-88 -11q-70 0 -128 22.5t-99.5 64t-64.5 100t-23 130.5zM377 666l-42 45
l-42 -45h-126l108 132h120l108 -132h-126z" />
    <glyph glyph-name="ccircumflex" unicode="&#x109;" horiz-adv-x="400" 
d="M18 225q0 54 17.5 97.5t49 74t74.5 47t94 16.5q35 0 66 -7.5t55 -24.5v-132q-44 32 -97 32q-44 0 -74 -26t-30 -77t30 -77t74 -26q53 0 97 32v-132q-24 -17 -55 -24.5t-66 -7.5q-51 0 -94 16.5t-74.5 47t-49 74t-17.5 97.5zM274 498l-40 55l-40 -55h-116l96 151h120
l96 -151h-116z" />
    <glyph glyph-name="Cdotaccent" unicode="&#x10a;" horiz-adv-x="529" 
d="M22 307q0 72 23 130.5t64.5 100t99.5 64t128 22.5q49 0 88 -11t68 -31v-156q-65 50 -143 50q-77 0 -122 -44.5t-45 -124.5q0 -79 45 -123.5t122 -44.5q38 0 74 11.5t69 37.5v-156q-29 -20 -68 -31t-88 -11q-70 0 -128 22.5t-99.5 64t-64.5 100t-23 130.5zM422 743
q0 -39 -26.5 -62t-62.5 -23t-62.5 23t-26.5 62q0 38 26.5 61t62.5 23t62.5 -23t26.5 -61z" />
    <glyph glyph-name="cdotaccent" unicode="&#x10b;" horiz-adv-x="400" 
d="M18 225q0 54 17.5 97.5t49 74t74.5 47t94 16.5q35 0 66 -7.5t55 -24.5v-132q-44 32 -97 32q-44 0 -74 -26t-30 -77t30 -77t74 -26q53 0 97 32v-132q-24 -17 -55 -24.5t-66 -7.5q-51 0 -94 16.5t-74.5 47t-49 74t-17.5 97.5zM325 579q0 -38 -26.5 -61t-62.5 -23t-62.5 23
t-26.5 61q0 39 26.5 62t62.5 23t62.5 -23t26.5 -62z" />
    <glyph glyph-name="Ccaron" unicode="&#x10c;" horiz-adv-x="529" 
d="M22 307q0 72 23 130.5t64.5 100t99.5 64t128 22.5q49 0 88 -11t68 -31v-156q-65 50 -143 50q-77 0 -122 -44.5t-45 -124.5q0 -79 45 -123.5t122 -44.5q38 0 74 11.5t69 37.5v-156q-29 -20 -68 -31t-88 -11q-70 0 -128 22.5t-99.5 64t-64.5 100t-23 130.5zM293 796l42 -46
l42 46h126l-108 -133h-120l-108 133h126z" />
    <glyph glyph-name="ccaron" unicode="&#x10d;" horiz-adv-x="400" 
d="M18 225q0 54 17.5 97.5t49 74t74.5 47t94 16.5q35 0 66 -7.5t55 -24.5v-132q-44 32 -97 32q-44 0 -74 -26t-30 -77t30 -77t74 -26q53 0 97 32v-132q-24 -17 -55 -24.5t-66 -7.5q-51 0 -94 16.5t-74.5 47t-49 74t-17.5 97.5zM182 498l-96 151h116l40 -56l40 56h116
l-96 -151h-120z" />
    <glyph glyph-name="Dcaron" unicode="&#x10e;" horiz-adv-x="609" 
d="M270 139q77 0 118 45t41 123t-41 123.5t-118 45.5h-66v-337h66zM278 614q72 0 129.5 -21.5t97.5 -61.5t61.5 -97t21.5 -127t-21.5 -127t-61.5 -97t-97.5 -61.5t-129.5 -21.5h-232v614h232zM230 796l42 -46l42 46h126l-108 -133h-120l-108 133h126z" />
    <glyph glyph-name="dcaron" unicode="&#x10f;" horiz-adv-x="529" 
d="M330 36q-16 -18 -46 -32t-65 -14q-49 0 -86.5 18.5t-63 50.5t-38.5 74.5t-13 91.5t13 91.5t38.5 74.5t63 50.5t86.5 18.5q35 0 65 -14t46 -32v236h157v-650h-157v36zM330 285q-9 18 -27.5 30t-41.5 12q-41 0 -63.5 -29t-22.5 -73t22.5 -72.5t63.5 -28.5q23 0 41.5 11.5
t27.5 30.5v119zM560 650h122l-44 -167h-121z" />
    <glyph glyph-name="Dcroat" unicode="&#x110;" horiz-adv-x="626" 
d="M63 376v238h232q72 0 129.5 -21.5t97.5 -61.5t61.5 -97t21.5 -127t-21.5 -127t-61.5 -97t-97.5 -61.5t-129.5 -21.5h-232v252h-46v124h46zM287 139q77 0 118 45t41 123t-41 123.5t-118 45.5h-66v-100h87v-124h-87v-113h66z" />
    <glyph glyph-name="dcroat" unicode="&#x111;" horiz-adv-x="529" 
d="M330 592v58h157v-58h47v-102h-47v-490h-157v36q-16 -18 -46 -32t-65 -14q-49 0 -86.5 18.5t-63 50.5t-38.5 74.5t-13 91.5t13 91.5t38.5 74.5t63 50.5t86.5 18.5q35 0 65 -14t46 -32v76h-82v102h82zM330 285q-9 18 -27.5 30t-41.5 12q-41 0 -63.5 -29t-22.5 -73
t22.5 -72.5t63.5 -28.5q23 0 41.5 11.5t27.5 30.5v119z" />
    <glyph glyph-name="Emacron" unicode="&#x112;" horiz-adv-x="519" 
d="M485 476h-281v-96h257v-135h-257v-106h281v-139h-439v614h439v-138zM404 774v-108h-265v108h265z" />
    <glyph glyph-name="emacron" unicode="&#x113;" horiz-adv-x="468" 
d="M170 189q10 -41 40.5 -58.5t74.5 -17.5q36 0 66 8t64 28v-119q-26 -20 -66 -30t-89 -10q-54 0 -98.5 16t-76.5 46t-49.5 73t-17.5 97q0 53 16.5 96.5t46 75t69 49t86.5 17.5q52 0 92 -16.5t66 -46t39.5 -71t13.5 -91.5v-46h-277zM242 341q-53 0 -70 -64h135
q-3 29 -19.5 46.5t-45.5 17.5zM372 612v-108h-253v108h253z" />
    <glyph glyph-name="Ebreve" unicode="&#x114;" horiz-adv-x="519" 
d="M485 476h-281v-96h257v-135h-257v-106h281v-139h-439v614h439v-138zM271 658q-63 0 -103.5 37t-40.5 109h108q0 -21 9.5 -31.5t26.5 -10.5q36 0 36 42h108q0 -72 -40.5 -109t-103.5 -37z" />
    <glyph glyph-name="ebreve" unicode="&#x115;" horiz-adv-x="468" 
d="M170 189q10 -41 40.5 -58.5t74.5 -17.5q36 0 66 8t64 28v-119q-26 -20 -66 -30t-89 -10q-54 0 -98.5 16t-76.5 46t-49.5 73t-17.5 97q0 53 16.5 96.5t46 75t69 49t86.5 17.5q52 0 92 -16.5t66 -46t39.5 -71t13.5 -91.5v-46h-277zM242 341q-53 0 -70 -64h135
q-3 29 -19.5 46.5t-45.5 17.5zM245 488q-62 0 -102.5 38t-40.5 112h108q0 -47 35 -47q36 0 36 47h107q0 -74 -40.5 -112t-102.5 -38z" />
    <glyph glyph-name="Edotaccent" unicode="&#x116;" horiz-adv-x="519" 
d="M485 476h-281v-96h257v-135h-257v-106h281v-139h-439v614h439v-138zM360 743q0 -39 -26.5 -62t-62.5 -23t-62.5 23t-26.5 62q0 38 26.5 61t62.5 23t62.5 -23t26.5 -61z" />
    <glyph glyph-name="edotaccent" unicode="&#x117;" horiz-adv-x="468" 
d="M170 189q10 -41 40.5 -58.5t74.5 -17.5q36 0 66 8t64 28v-119q-26 -20 -66 -30t-89 -10q-54 0 -98.5 16t-76.5 46t-49.5 73t-17.5 97q0 53 16.5 96.5t46 75t69 49t86.5 17.5q52 0 92 -16.5t66 -46t39.5 -71t13.5 -91.5v-46h-277zM242 341q-53 0 -70 -64h135
q-3 29 -19.5 46.5t-45.5 17.5zM334 579q0 -38 -26.5 -61t-62.5 -23t-62.5 23t-26.5 61q0 39 26.5 62t62.5 23t62.5 -23t26.5 -62z" />
    <glyph glyph-name="Eogonek" unicode="&#x118;" horiz-adv-x="519" 
d="M485 476h-281v-96h257v-135h-257v-106h281v-139h-35q-29 -35 -39.5 -49t-10.5 -26q0 -19 19 -19q9 0 16 3.5t19 11.5v-87q-14 -8 -29 -13.5t-36 -5.5q-40 0 -66 20t-26 59q0 29 16.5 54.5t39.5 51.5h-307v614h439v-138z" />
    <glyph glyph-name="eogonek" unicode="&#x119;" horiz-adv-x="468" 
d="M226 -105q0 26 12 48.5t35 46.5h-13q-54 0 -98.5 16t-76.5 46t-49.5 73t-17.5 97q0 53 16.5 96.5t46 75t69 49t86.5 17.5q52 0 92 -16.5t66 -46t39.5 -71t13.5 -91.5v-46h-275q9 -41 39.5 -58.5t73.5 -17.5q36 0 66 8t64 28v-119q-8 -6 -17.5 -12.5t-22.5 -16.5
q-20 -17 -33 -36.5t-13 -36.5q0 -22 20 -22q8 0 15.5 3.5t19.5 11.5v-87q-14 -8 -29.5 -13.5t-36.5 -5.5q-38 0 -65 20t-27 60zM242 341q-26 0 -44.5 -16t-26.5 -48h136q-3 29 -19.5 46.5t-45.5 17.5z" />
    <glyph glyph-name="Ecaron" unicode="&#x11a;" horiz-adv-x="519" 
d="M485 476h-281v-96h257v-135h-257v-106h281v-139h-439v614h439v-138zM229 796l42 -46l42 46h126l-108 -133h-120l-108 133h126z" />
    <glyph glyph-name="ecaron" unicode="&#x11b;" horiz-adv-x="468" 
d="M170 189q10 -41 40.5 -58.5t74.5 -17.5q36 0 66 8t64 28v-119q-26 -20 -66 -30t-89 -10q-54 0 -98.5 16t-76.5 46t-49.5 73t-17.5 97q0 53 16.5 96.5t46 75t69 49t86.5 17.5q52 0 92 -16.5t66 -46t39.5 -71t13.5 -91.5v-46h-277zM242 341q-53 0 -70 -64h135
q-3 29 -19.5 46.5t-45.5 17.5zM185 498l-96 151h116l40 -56l40 56h116l-96 -151h-120z" />
    <glyph glyph-name="Gcircumflex" unicode="&#x11c;" horiz-adv-x="595" 
d="M339 133q50 0 79 22v60h-89v128h231v-271q-47 -43 -104.5 -62.5t-121.5 -19.5q-72 0 -130 23t-98.5 65t-62 100t-21.5 127q0 72 24 131t67 101t103.5 64.5t133.5 22.5q51 0 97.5 -13t80.5 -35v-156q-35 26 -78 41t-100 15q-37 0 -67.5 -12t-52.5 -34t-34.5 -53.5
t-12.5 -71.5q0 -39 11.5 -71t32 -54.5t49 -34.5t63.5 -12zM388 666l-42 45l-42 -45h-126l108 132h120l108 -132h-126z" />
    <glyph glyph-name="gcircumflex" unicode="&#x11d;" horiz-adv-x="521" 
d="M323 61q-15 -17 -42 -30.5t-64 -13.5q-48 0 -85 17t-62.5 47t-38.5 70.5t-13 87.5q0 46 13 86.5t38.5 70.5t62.5 47t85 17q37 0 64 -13t42 -31v34h155v-385q0 -62 -20.5 -106.5t-56.5 -73t-83.5 -41.5t-101.5 -13q-48 0 -91.5 10.5t-70.5 27.5v144q35 -29 72.5 -42
t84.5 -13q22 0 42.5 5t36 15.5t24.5 27t9 40.5v15zM323 298q-9 15 -26.5 26.5t-40.5 11.5q-39 0 -61 -27t-22 -70t22 -70t61 -27q23 0 40.5 11t26.5 26v119zM319 498l-40 55l-40 -55h-116l96 151h120l96 -151h-116z" />
    <glyph glyph-name="Gbreve" unicode="&#x11e;" horiz-adv-x="595" 
d="M339 133q50 0 79 22v60h-89v128h231v-271q-47 -43 -104.5 -62.5t-121.5 -19.5q-72 0 -130 23t-98.5 65t-62 100t-21.5 127q0 72 24 131t67 101t103.5 64.5t133.5 22.5q51 0 97.5 -13t80.5 -35v-156q-35 26 -78 41t-100 15q-37 0 -67.5 -12t-52.5 -34t-34.5 -53.5
t-12.5 -71.5q0 -39 11.5 -71t32 -54.5t49 -34.5t63.5 -12zM346 658q-63 0 -103.5 37t-40.5 109h108q0 -21 9.5 -31.5t26.5 -10.5q36 0 36 42h108q0 -72 -40.5 -109t-103.5 -37z" />
    <glyph glyph-name="gbreve" unicode="&#x11f;" horiz-adv-x="521" 
d="M323 61q-15 -17 -42 -30.5t-64 -13.5q-48 0 -85 17t-62.5 47t-38.5 70.5t-13 87.5q0 46 13 86.5t38.5 70.5t62.5 47t85 17q37 0 64 -13t42 -31v34h155v-385q0 -62 -20.5 -106.5t-56.5 -73t-83.5 -41.5t-101.5 -13q-48 0 -91.5 10.5t-70.5 27.5v144q35 -29 72.5 -42
t84.5 -13q22 0 42.5 5t36 15.5t24.5 27t9 40.5v15zM323 298q-9 15 -26.5 26.5t-40.5 11.5q-39 0 -61 -27t-22 -70t22 -70t61 -27q23 0 40.5 11t26.5 26v119zM279 488q-62 0 -102.5 38t-40.5 112h108q0 -47 35 -47q36 0 36 47h107q0 -74 -40.5 -112t-102.5 -38z" />
    <glyph glyph-name="Gdotaccent" unicode="&#x120;" horiz-adv-x="595" 
d="M339 133q50 0 79 22v60h-89v128h231v-271q-47 -43 -104.5 -62.5t-121.5 -19.5q-72 0 -130 23t-98.5 65t-62 100t-21.5 127q0 72 24 131t67 101t103.5 64.5t133.5 22.5q51 0 97.5 -13t80.5 -35v-156q-35 26 -78 41t-100 15q-37 0 -67.5 -12t-52.5 -34t-34.5 -53.5
t-12.5 -71.5q0 -39 11.5 -71t32 -54.5t49 -34.5t63.5 -12zM433 743q0 -39 -26.5 -62t-62.5 -23t-62.5 23t-26.5 62q0 38 26.5 61t62.5 23t62.5 -23t26.5 -61z" />
    <glyph glyph-name="gdotaccent" unicode="&#x121;" horiz-adv-x="521" 
d="M323 61q-15 -17 -42 -30.5t-64 -13.5q-48 0 -85 17t-62.5 47t-38.5 70.5t-13 87.5q0 46 13 86.5t38.5 70.5t62.5 47t85 17q37 0 64 -13t42 -31v34h155v-385q0 -62 -20.5 -106.5t-56.5 -73t-83.5 -41.5t-101.5 -13q-48 0 -91.5 10.5t-70.5 27.5v144q35 -29 72.5 -42
t84.5 -13q22 0 42.5 5t36 15.5t24.5 27t9 40.5v15zM323 298q-9 15 -26.5 26.5t-40.5 11.5q-39 0 -61 -27t-22 -70t22 -70t61 -27q23 0 40.5 11t26.5 26v119zM368 579q0 -38 -26.5 -61t-62.5 -23t-62.5 23t-26.5 61q0 39 26.5 62t62.5 23t62.5 -23t26.5 -62z" />
    <glyph glyph-name="Gcommaaccent" unicode="&#x122;" horiz-adv-x="595" 
d="M339 133q50 0 79 22v60h-89v128h231v-271q-47 -43 -104.5 -62.5t-121.5 -19.5q-72 0 -130 23t-98.5 65t-62 100t-21.5 127q0 72 24 131t67 101t103.5 64.5t133.5 22.5q51 0 97.5 -13t80.5 -35v-156q-35 26 -78 41t-100 15q-37 0 -67.5 -12t-52.5 -34t-34.5 -53.5
t-12.5 -71.5q0 -39 11.5 -71t32 -54.5t49 -34.5t63.5 -12zM309 -172q-20 6 -34 23.5t-14 43.5q0 32 23 52t58 20q32 0 56.5 -20.5t24.5 -57.5q0 -26 -11 -46.5t-28 -40.5l-29 -38h-95z" />
    <glyph glyph-name="gcommaaccent" unicode="&#x123;" horiz-adv-x="521" 
d="M323 61q-15 -17 -42 -30.5t-64 -13.5q-48 0 -85 17t-62.5 47t-38.5 70.5t-13 87.5q0 46 13 86.5t38.5 70.5t62.5 47t85 17q37 0 64 -13t42 -31v34h155v-385q0 -62 -20.5 -106.5t-56.5 -73t-83.5 -41.5t-101.5 -13q-48 0 -91.5 10.5t-70.5 27.5v144q35 -29 72.5 -42
t84.5 -13q22 0 42.5 5t36 15.5t24.5 27t9 40.5v15zM323 298q-9 15 -26.5 26.5t-40.5 11.5q-39 0 -61 -27t-22 -70t22 -70t61 -27q23 0 40.5 11t26.5 26v119zM309 629q20 -6 34.5 -23.5t14.5 -44.5q0 -32 -23.5 -52.5t-58.5 -20.5q-32 0 -56.5 20.5t-24.5 58.5q0 26 11 47
t28 42l31 40h96z" />
    <glyph glyph-name="Hcircumflex" unicode="&#x124;" horiz-adv-x="650" 
d="M605 0h-161v243h-237v-243h-161v614h161v-233h237v233h161v-614zM367 666l-42 45l-42 -45h-126l108 132h120l108 -132h-126z" />
    <glyph glyph-name="hcircumflex" unicode="&#x125;" horiz-adv-x="519" 
d="M199 650v-239q19 21 50.5 35t70.5 14q75 0 117 -45t42 -120v-295h-156v257q0 28 -14.5 46t-44.5 18q-23 0 -41 -13t-24 -36v-272h-157v650h157zM299 680l-42 45l-42 -45h-126l108 132h120l108 -132h-126z" />
    <glyph glyph-name="Hbar" unicode="&#x126;" horiz-adv-x="683" 
d="M62 534v80h161v-80h237v80h161v-80h45v-123h-45v-411h-161v198h-237v-198h-161v411h-45v123h45zM460 411h-237v-90h237v90z" />
    <glyph glyph-name="hbar" unicode="&#x127;" horiz-adv-x="519" 
d="M42 592v58h157v-58h82v-102h-82v-79q19 21 50.5 35t70.5 14q75 0 117 -45t42 -120v-295h-156v257q0 28 -14.5 46t-44.5 18q-23 0 -41 -13t-24 -36v-272h-157v490h-47v102h47z" />
    <glyph glyph-name="Itilde" unicode="&#x128;" horiz-adv-x="253" 
d="M46 0v614h161v-614h-161zM284 809q0 -30 -4.5 -57.5t-15 -48t-27 -32.5t-41.5 -12q-18 0 -33.5 5.5t-29.5 12t-26.5 12t-25.5 5.5q-24 0 -26 -31h-85q0 30 4.5 57t15 48t27 33t41.5 12q18 0 33.5 -5.5t29.5 -12t26.5 -12t25.5 -5.5q24 0 26 31h85z" />
    <glyph glyph-name="itilde" unicode="&#x129;" horiz-adv-x="242" 
d="M250 647q0 -30 -4 -57.5t-13 -48t-23.5 -32.5t-36.5 -12q-15 0 -25.5 5.5t-19.5 12t-17 12t-18 5.5q-20 0 -22 -32h-80q0 30 4 57.5t13 48t23.5 32.5t36.5 12q15 0 25.5 -5.5t19.5 -12t17 -12t18 -5.5q20 0 22 32h80zM42 0v450h157v-450h-157z" />
    <glyph glyph-name="Imacron" unicode="&#x12a;" horiz-adv-x="253" 
d="M46 0v614h161v-614h-161zM260 774v-108h-265v108h265z" />
    <glyph glyph-name="imacron" unicode="&#x12b;" horiz-adv-x="242" 
d="M231 612v-108h-222v108h222zM42 0v450h157v-450h-157z" />
    <glyph glyph-name="Ibreve" unicode="&#x12c;" horiz-adv-x="253" 
d="M46 0v614h161v-614h-161zM128 658q-63 0 -103.5 37t-40.5 109h108q0 -21 9.5 -31.5t26.5 -10.5q36 0 36 42h108q0 -72 -40.5 -109t-103.5 -37z" />
    <glyph glyph-name="ibreve" unicode="&#x12d;" horiz-adv-x="242" 
d="M120 488q-56 0 -91.5 37.5t-35.5 112.5h98q0 -47 30 -47q17 0 23 12t6 35h99q0 -75 -36 -112.5t-93 -37.5zM42 0v450h157v-450h-157z" />
    <glyph glyph-name="Iogonek" unicode="&#x12e;" horiz-adv-x="253" 
d="M207 0l-25 -30t-16 -19.5t-8.5 -13.5t-2.5 -12q0 -19 20 -19q8 0 15.5 3.5t19.5 11.5v-87q-14 -8 -29.5 -13.5t-35.5 -5.5q-40 0 -66 20t-26 59q0 29 16 54t39 52h-62v614h161v-614z" />
    <glyph glyph-name="iogonek" unicode="&#x12f;" horiz-adv-x="242" 
d="M199 0l-25 -30t-16 -19.5t-8 -13.5t-2 -12q0 -19 19 -19q9 0 16.5 3.5t19.5 11.5v-87q-14 -8 -29.5 -13.5t-36.5 -5.5q-39 0 -65.5 20t-26.5 59q0 29 16 54t39 52h-58v450h157v-450zM210 572q0 -38 -26.5 -61t-62.5 -23t-62.5 23t-26.5 61q0 39 26.5 62t62.5 23t62.5 -23
t26.5 -62z" />
    <glyph glyph-name="Idotaccent" unicode="&#x130;" horiz-adv-x="253" 
d="M46 0v614h161v-614h-161zM216 743q0 -39 -26.5 -62t-62.5 -23t-62.5 23t-26.5 62q0 38 26.5 61t62.5 23t62.5 -23t26.5 -61z" />
    <glyph glyph-name="dotlessi" unicode="&#x131;" horiz-adv-x="242" 
d="M42 0v450h157v-450h-157z" />
    <glyph glyph-name="IJ" unicode="&#x132;" horiz-adv-x="674" 
d="M46 0v614h161v-614h-161zM278 177q29 -20 56.5 -31t61.5 -11q46 0 62.5 26t16.5 84v369h161v-398q0 -59 -15 -102t-43.5 -70.5t-69 -40.5t-90.5 -13q-44 0 -82 11.5t-58 24.5v151z" />
    <glyph glyph-name="ij" unicode="&#x133;" horiz-adv-x="483" 
d="M441 10q0 -85 -43 -132t-128 -47q-37 0 -57 7v118q5 -1 10.5 -1.5t12.5 -0.5q24 0 36 11t12 39v446h157v-440zM452 573q0 -38 -26.5 -61t-62.5 -23t-62.5 23t-26.5 61q0 39 26.5 62t62.5 23t62.5 -23t26.5 -62zM42 0v450h157v-450h-157zM211 573q0 -38 -26.5 -61
t-62.5 -23t-62.5 23t-26.5 61q0 39 26.5 62t62.5 23t62.5 -23t26.5 -62z" />
    <glyph glyph-name="Jcircumflex" unicode="&#x134;" horiz-adv-x="418" 
d="M22 177q29 -20 56.5 -31t61.5 -11q46 0 62.5 26t16.5 84v369h161v-398q0 -59 -15 -102t-43.5 -70.5t-69 -40.5t-90.5 -13q-44 0 -82 11.5t-58 24.5v151zM342 666l-42 45l-42 -45h-126l108 132h120l108 -132h-126z" />
    <glyph glyph-name="jcircumflex" unicode="&#x135;" horiz-adv-x="241" 
d="M148 498l-27 60l-28 -60h-111l79 151h120l79 -151h-112zM199 10q0 -85 -43 -132t-128 -47q-37 0 -57 7v118q5 -1 10.5 -1.5t12.5 -0.5q24 0 36 11t12 39v446h157v-440z" />
    <glyph glyph-name="Kcommaaccent" unicode="&#x136;" horiz-adv-x="604" 
d="M402 614h187l-226 -294l235 -320h-190l-201 275v-275h-161v614h161v-261zM262 -172q-20 6 -34 23.5t-14 43.5q0 32 23 52t58 20q32 0 56.5 -20.5t24.5 -57.5q0 -26 -11 -46.5t-28 -40.5l-29 -38h-95z" />
    <glyph glyph-name="kcommaaccent" unicode="&#x137;" horiz-adv-x="511" 
d="M335 0l-136 197v-197h-157v650h157v-370l128 170h180l-167 -208l171 -242h-176zM220 -172q-20 6 -34 23.5t-14 43.5q0 32 23 52t58 20q32 0 56.5 -20.5t24.5 -57.5q0 -26 -11 -46.5t-28 -40.5l-29 -38h-95z" />
    <glyph glyph-name="kgreenlandic" unicode="&#x138;" horiz-adv-x="511" 
d="M335 0l-136 197v-197h-157v450h157v-170l128 170h180l-167 -208l171 -242h-176z" />
    <glyph glyph-name="Lacute" unicode="&#x139;" horiz-adv-x="510" 
d="M207 614v-475h275v-139h-436v614h161zM139 796h161l-89 -130h-154z" />
    <glyph glyph-name="lacute" unicode="&#x13a;" horiz-adv-x="242" 
d="M42 0v650h157v-650h-157zM125 815h161l-89 -130h-154z" />
    <glyph glyph-name="Lcommaaccent" unicode="&#x13b;" horiz-adv-x="510" 
d="M234 -172q-20 6 -34 23.5t-14 43.5q0 32 23 52t58 20q32 0 56.5 -20.5t24.5 -57.5q0 -26 -11 -46.5t-28 -40.5l-29 -38h-95zM207 614v-475h275v-139h-436v614h161z" />
    <glyph glyph-name="lcommaaccent" unicode="&#x13c;" horiz-adv-x="242" 
d="M88 -172q-20 6 -34 23.5t-14 43.5q0 32 23 52t58 20q32 0 56.5 -20.5t24.5 -57.5q0 -26 -11 -46.5t-28 -40.5l-29 -38h-95zM42 0v650h157v-650h-157z" />
    <glyph glyph-name="Lcaron" unicode="&#x13d;" horiz-adv-x="510" 
d="M207 614v-475h275v-139h-436v614h161zM309 615h122l-44 -167h-121z" />
    <glyph glyph-name="lcaron" unicode="&#x13e;" horiz-adv-x="242" 
d="M273 650h122l-44 -167h-121zM42 0v650h157v-650h-157z" />
    <glyph glyph-name="Ldot" unicode="&#x13f;" horiz-adv-x="510" 
d="M463 346q0 -38 -26.5 -61t-62.5 -23t-62.5 23t-26.5 61q0 39 26.5 62t62.5 23t62.5 -23t26.5 -62zM207 614v-475h275v-139h-436v614h161z" />
    <glyph glyph-name="ldot" unicode="&#x140;" horiz-adv-x="426" 
d="M422 332q0 -38 -26.5 -61t-62.5 -23t-62.5 23t-26.5 61q0 39 26.5 62t62.5 23t62.5 -23t26.5 -62zM42 0v650h157v-650h-157z" />
    <glyph glyph-name="Lslash" unicode="&#x141;" horiz-adv-x="524" 
d="M60 338v276h161v-217l121 49v-125l-121 -48v-134h275v-139h-436v213l-49 -19v124z" />
    <glyph glyph-name="lslash" unicode="&#x142;" horiz-adv-x="292" 
d="M276 459v-115l-52 -31v-313h-157v235l-50 -29v115l50 29v300h157v-222z" />
    <glyph glyph-name="Nacute" unicode="&#x143;" horiz-adv-x="634" 
d="M458 0l-257 359v-359h-155v614h150l237 -338v338h155v-614h-130zM318 796h161l-89 -130h-154z" />
    <glyph glyph-name="nacute" unicode="&#x144;" horiz-adv-x="519" 
d="M199 450v-39q19 21 50.5 35t70.5 14q75 0 117 -45t42 -120v-295h-156v257q0 28 -14.5 46t-44.5 18q-23 0 -41 -13t-24 -36v-272h-157v450h157zM273 650h149l-87 -150h-144z" />
    <glyph glyph-name="Ncommaaccent" unicode="&#x145;" horiz-adv-x="634" 
d="M458 0l-257 359v-359h-155v614h150l237 -338v338h155v-614h-130zM283 -172q-20 6 -34 23.5t-14 43.5q0 32 23 52t58 20q32 0 56.5 -20.5t24.5 -57.5q0 -26 -11 -46.5t-28 -40.5l-29 -38h-95z" />
    <glyph glyph-name="ncommaaccent" unicode="&#x146;" horiz-adv-x="519" 
d="M230 -172q-20 6 -34 23.5t-14 43.5q0 32 23 52t58 20q32 0 56.5 -20.5t24.5 -57.5q0 -26 -11 -46.5t-28 -40.5l-29 -38h-95zM199 450v-39q19 21 50.5 35t70.5 14q75 0 117 -45t42 -120v-295h-156v257q0 28 -14.5 46t-44.5 18q-23 0 -41 -13t-24 -36v-272h-157v450h157z
" />
    <glyph glyph-name="Ncaron" unicode="&#x147;" horiz-adv-x="634" 
d="M458 0l-257 359v-359h-155v614h150l237 -338v338h155v-614h-130zM275 796l42 -46l42 46h126l-108 -133h-120l-108 133h126z" />
    <glyph glyph-name="ncaron" unicode="&#x148;" horiz-adv-x="519" 
d="M199 450v-39q19 21 50.5 35t70.5 14q75 0 117 -45t42 -120v-295h-156v257q0 28 -14.5 46t-44.5 18q-23 0 -41 -13t-24 -36v-272h-157v450h157zM208 498l-96 151h116l40 -56l40 56h116l-96 -151h-120z" />
    <glyph glyph-name="Eng" unicode="&#x14a;" horiz-adv-x="634" 
d="M280 -18q16 -8 32.5 -12t35.5 -4q38 0 56 18t22 60l-225 315v-359h-155v614h150l237 -338v338h155v-561q0 -59 -15 -102t-43 -70.5t-68 -40.5t-90 -13q-26 0 -49 4.5t-43 10.5v140z" />
    <glyph glyph-name="eng" unicode="&#x14b;" horiz-adv-x="519" 
d="M323 257q0 28 -14.5 46t-44.5 18q-23 0 -41 -13t-24 -36v-272h-157v450h157v-39q19 21 50.5 35t70.5 14q75 0 117 -45t42 -120v-285q0 -85 -43 -132t-128 -47q-37 0 -57 7v118q5 -1 10.5 -1.5t12.5 -0.5q24 0 36.5 11t12.5 39v253z" />
    <glyph glyph-name="Omacron" unicode="&#x14c;" horiz-adv-x="643" 
d="M622 307q0 -69 -22 -127t-62 -100t-95 -66t-122 -24q-66 0 -121 24t-94.5 66t-61.5 100t-22 127t22 127t61.5 100.5t94.5 66t121 23.5q67 0 122 -23.5t95 -66t62 -100.5t22 -127zM460 307q0 80 -38 128t-101 48t-100 -48t-37 -128t37 -128t100 -48t101 48t38 128z
M454 774v-108h-265v108h265z" />
    <glyph glyph-name="omacron" unicode="&#x14d;" horiz-adv-x="497" 
d="M478 225q0 -52 -16.5 -95.5t-47 -74.5t-73 -48t-93.5 -17t-93.5 17t-72.5 48t-47 74.5t-17 95.5t17 95.5t47 74.5t72.5 48t93.5 17t93.5 -17t73 -48t47 -74.5t16.5 -95.5zM324 225q0 47 -19.5 76.5t-56.5 29.5q-36 0 -55.5 -29.5t-19.5 -76.5t19.5 -76t55.5 -29
q37 0 56.5 29t19.5 76zM376 612v-108h-253v108h253z" />
    <glyph glyph-name="Obreve" unicode="&#x14e;" horiz-adv-x="643" 
d="M622 307q0 -69 -22 -127t-62 -100t-95 -66t-122 -24q-66 0 -121 24t-94.5 66t-61.5 100t-22 127t22 127t61.5 100.5t94.5 66t121 23.5q67 0 122 -23.5t95 -66t62 -100.5t22 -127zM460 307q0 80 -38 128t-101 48t-100 -48t-37 -128t37 -128t100 -48t101 48t38 128z
M322 658q-63 0 -103.5 37t-40.5 109h108q0 -21 9.5 -31.5t26.5 -10.5q36 0 36 42h108q0 -72 -40.5 -109t-103.5 -37z" />
    <glyph glyph-name="obreve" unicode="&#x14f;" horiz-adv-x="497" 
d="M478 225q0 -52 -16.5 -95.5t-47 -74.5t-73 -48t-93.5 -17t-93.5 17t-72.5 48t-47 74.5t-17 95.5t17 95.5t47 74.5t72.5 48t93.5 17t93.5 -17t73 -48t47 -74.5t16.5 -95.5zM324 225q0 47 -19.5 76.5t-56.5 29.5q-36 0 -55.5 -29.5t-19.5 -76.5t19.5 -76t55.5 -29
q37 0 56.5 29t19.5 76zM249 488q-62 0 -102.5 38t-40.5 112h108q0 -47 35 -47q36 0 36 47h107q0 -74 -40.5 -112t-102.5 -38z" />
    <glyph glyph-name="Ohungarumlaut" unicode="&#x150;" horiz-adv-x="643" 
d="M622 307q0 -69 -22 -127t-62 -100t-95 -66t-122 -24q-66 0 -121 24t-94.5 66t-61.5 100t-22 127t22 127t61.5 100.5t94.5 66t121 23.5q67 0 122 -23.5t95 -66t62 -100.5t22 -127zM460 307q0 80 -38 128t-101 48t-100 -48t-37 -128t37 -128t100 -48t101 48t38 128z
M250 796h130l-76 -130h-129zM417 796h130l-77 -130h-129z" />
    <glyph glyph-name="ohungarumlaut" unicode="&#x151;" horiz-adv-x="497" 
d="M478 225q0 -52 -16.5 -95.5t-47 -74.5t-73 -48t-93.5 -17t-93.5 17t-72.5 48t-47 74.5t-17 95.5t17 95.5t47 74.5t72.5 48t93.5 17t93.5 -17t73 -48t47 -74.5t16.5 -95.5zM324 225q0 47 -19.5 76.5t-56.5 29.5q-36 0 -55.5 -29.5t-19.5 -76.5t19.5 -76t55.5 -29
q37 0 56.5 29t19.5 76zM181 650h123l-77 -150h-122zM340 650h122l-77 -150h-121z" />
    <glyph glyph-name="OE" unicode="&#x152;" horiz-adv-x="846" 
d="M551 476v-96h237v-135h-237v-106h262v-139h-482q-72 0 -129.5 21.5t-97 61.5t-61 97t-21.5 127t21.5 127t61 97t97 61.5t129.5 21.5h482v-138h-262zM393 476h-54q-77 0 -117.5 -45.5t-40.5 -123.5t40.5 -123t117.5 -45h54v337z" />
    <glyph glyph-name="oe" unicode="&#x153;" horiz-adv-x="765" 
d="M248 460q45 0 82 -14t66 -40q27 26 62 40t75 14q52 0 92 -16.5t66 -46t39.5 -71t13.5 -91.5v-46h-277q10 -41 40.5 -58.5t74.5 -17.5q36 0 66 8t65 28v-119q-27 -20 -67 -30t-88 -10q-49 0 -90 14.5t-72 40.5q-29 -26 -66 -40.5t-82 -14.5q-51 0 -93.5 17t-72.5 48
t-47 74.5t-17 95.5t17 95.5t47 74.5t72.5 48t93.5 17zM324 225q0 47 -19.5 76.5t-56.5 29.5q-36 0 -55.5 -29.5t-19.5 -76.5t19.5 -76t55.5 -29q37 0 56.5 29t19.5 76zM539 341q-53 0 -70 -64h135q-3 29 -19.5 46.5t-45.5 17.5z" />
    <glyph glyph-name="Racute" unicode="&#x154;" horiz-adv-x="574" 
d="M205 0h-159v614h276q49 0 90.5 -14t70.5 -40.5t45.5 -65.5t16.5 -89q0 -70 -32.5 -117t-89.5 -68l144 -220h-178l-128 203h-56v-203zM305 331q43 0 63 20t20 54t-20 54t-63 20h-100v-148h100zM284 796h161l-89 -130h-154z" />
    <glyph glyph-name="racute" unicode="&#x155;" horiz-adv-x="365" 
d="M344 301q-27 14 -65 14q-32 0 -53 -13.5t-27 -37.5v-264h-157v450h157v-40q17 23 42.5 36.5t59.5 13.5q15 0 26.5 -2.5t16.5 -5.5v-151zM203 650h149l-87 -150h-144z" />
    <glyph glyph-name="Rcommaaccent" unicode="&#x156;" horiz-adv-x="574" 
d="M205 0h-159v614h276q49 0 90.5 -14t70.5 -40.5t45.5 -65.5t16.5 -89q0 -70 -32.5 -117t-89.5 -68l144 -220h-178l-128 203h-56v-203zM305 331q43 0 63 20t20 54t-20 54t-63 20h-100v-148h100zM249 -172q-20 6 -34 23.5t-14 43.5q0 32 23 52t58 20q32 0 56.5 -20.5
t24.5 -57.5q0 -26 -11 -46.5t-28 -40.5l-29 -38h-95z" />
    <glyph glyph-name="rcommaaccent" unicode="&#x157;" horiz-adv-x="365" 
d="M344 301q-27 14 -65 14q-32 0 -53 -13.5t-27 -37.5v-264h-157v450h157v-40q17 23 42.5 36.5t59.5 13.5q15 0 26.5 -2.5t16.5 -5.5v-151zM86 -172q-20 6 -34 23.5t-14 43.5q0 32 23 52t58 20q32 0 56.5 -20.5t24.5 -57.5q0 -26 -11 -46.5t-28 -40.5l-29 -38h-95z" />
    <glyph glyph-name="Rcaron" unicode="&#x158;" horiz-adv-x="574" 
d="M205 0h-159v614h276q49 0 90.5 -14t70.5 -40.5t45.5 -65.5t16.5 -89q0 -70 -32.5 -117t-89.5 -68l144 -220h-178l-128 203h-56v-203zM305 331q43 0 63 20t20 54t-20 54t-63 20h-100v-148h100zM241 796l42 -46l42 46h126l-108 -133h-120l-108 133h126z" />
    <glyph glyph-name="rcaron" unicode="&#x159;" horiz-adv-x="365" 
d="M344 301q-27 14 -65 14q-32 0 -53 -13.5t-27 -37.5v-264h-157v450h157v-40q17 23 42.5 36.5t59.5 13.5q15 0 26.5 -2.5t16.5 -5.5v-151zM138 498l-96 151h116l40 -56l40 56h116l-96 -151h-120z" />
    <glyph glyph-name="Sacute" unicode="&#x15a;" horiz-adv-x="504" 
d="M32 188q40 -27 92.5 -45.5t104.5 -18.5q38 0 66.5 10t28.5 39q0 23 -13.5 33t-38.5 19l-93 27q-78 23 -119 64.5t-41 118.5q0 46 18 81t49.5 59t74 36.5t90.5 12.5q63 0 109 -12.5t84 -33.5v-148q-42 29 -87.5 45t-98.5 16q-35 0 -58 -10.5t-23 -33.5q0 -21 13.5 -31
t37.5 -18l93 -28q85 -26 124 -71.5t39 -116.5q0 -50 -20 -86t-54 -59.5t-79.5 -35t-97.5 -11.5q-62 0 -114.5 15t-86.5 35v148zM260 796h161l-89 -130h-154z" />
    <glyph glyph-name="sacute" unicode="&#x15b;" horiz-adv-x="411" 
d="M26 165q16 -13 36.5 -23.5t42 -18t42.5 -11.5t38 -4q23 0 37 6t14 21q0 14 -10.5 20t-30.5 11l-35 9q-63 14 -99.5 45.5t-36.5 92.5q0 35 14 62.5t38.5 46t58 28.5t73.5 10q48 0 86 -10t71 -30v-129q-32 23 -68 37.5t-74 14.5q-20 0 -32.5 -6.5t-12.5 -20.5
q0 -13 9 -18.5t26 -10.5l41 -12q73 -20 105 -52.5t32 -89.5q0 -36 -14.5 -63t-40.5 -44.5t-61.5 -26.5t-77.5 -9q-48 0 -93.5 11t-77.5 32v132zM218 650h149l-87 -150h-144z" />
    <glyph glyph-name="Scircumflex" unicode="&#x15c;" horiz-adv-x="504" 
d="M32 188q40 -27 92.5 -45.5t104.5 -18.5q38 0 66.5 10t28.5 39q0 23 -13.5 33t-38.5 19l-93 27q-78 23 -119 64.5t-41 118.5q0 46 18 81t49.5 59t74 36.5t90.5 12.5q63 0 109 -12.5t84 -33.5v-148q-42 29 -87.5 45t-98.5 16q-35 0 -58 -10.5t-23 -33.5q0 -21 13.5 -31
t37.5 -18l93 -28q85 -26 124 -71.5t39 -116.5q0 -50 -20 -86t-54 -59.5t-79.5 -35t-97.5 -11.5q-62 0 -114.5 15t-86.5 35v148zM301 666l-42 45l-42 -45h-126l108 132h120l108 -132h-126z" />
    <glyph glyph-name="scircumflex" unicode="&#x15d;" horiz-adv-x="411" 
d="M26 165q16 -13 36.5 -23.5t42 -18t42.5 -11.5t38 -4q23 0 37 6t14 21q0 14 -10.5 20t-30.5 11l-35 9q-63 14 -99.5 45.5t-36.5 92.5q0 35 14 62.5t38.5 46t58 28.5t73.5 10q48 0 86 -10t71 -30v-129q-32 23 -68 37.5t-74 14.5q-20 0 -32.5 -6.5t-12.5 -20.5
q0 -13 9 -18.5t26 -10.5l41 -12q73 -20 105 -52.5t32 -89.5q0 -36 -14.5 -63t-40.5 -44.5t-61.5 -26.5t-77.5 -9q-48 0 -93.5 11t-77.5 32v132zM254 498l-40 55l-40 -55h-116l96 151h120l96 -151h-116z" />
    <glyph glyph-name="Scedilla" unicode="&#x15e;" horiz-adv-x="504" 
d="M32 188q40 -27 92.5 -45.5t104.5 -18.5q38 0 66.5 10t28.5 39q0 23 -13.5 33t-38.5 19l-93 27q-78 23 -119 64.5t-41 118.5q0 46 18 81t49.5 59t74 36.5t90.5 12.5q63 0 109 -12.5t84 -33.5v-148q-42 29 -87.5 45t-98.5 16q-35 0 -58 -10.5t-23 -33.5q0 -21 13.5 -31
t37.5 -18l93 -28q85 -26 124 -71.5t39 -116.5q0 -50 -20 -86t-54 -59.5t-79.5 -35t-97.5 -11.5q-62 0 -114.5 15t-86.5 35v148zM168 -40h134l-70 -141h-133z" />
    <glyph glyph-name="scedilla" unicode="&#x15f;" horiz-adv-x="411" 
d="M26 165q16 -13 36.5 -23.5t42 -18t42.5 -11.5t38 -4q23 0 37 6t14 21q0 14 -10.5 20t-30.5 11l-35 9q-63 14 -99.5 45.5t-36.5 92.5q0 35 14 62.5t38.5 46t58 28.5t73.5 10q48 0 86 -10t71 -30v-129q-32 23 -68 37.5t-74 14.5q-20 0 -32.5 -6.5t-12.5 -20.5
q0 -13 9 -18.5t26 -10.5l41 -12q73 -20 105 -52.5t32 -89.5q0 -36 -14.5 -63t-40.5 -44.5t-61.5 -26.5t-77.5 -9q-48 0 -93.5 11t-77.5 32v132zM130 -40h134l-70 -141h-133z" />
    <glyph glyph-name="Scaron" unicode="&#x160;" horiz-adv-x="504" 
d="M32 188q40 -27 92.5 -45.5t104.5 -18.5q38 0 66.5 10t28.5 39q0 23 -13.5 33t-38.5 19l-93 27q-78 23 -119 64.5t-41 118.5q0 46 18 81t49.5 59t74 36.5t90.5 12.5q63 0 109 -12.5t84 -33.5v-148q-42 29 -87.5 45t-98.5 16q-35 0 -58 -10.5t-23 -33.5q0 -21 13.5 -31
t37.5 -18l93 -28q85 -26 124 -71.5t39 -116.5q0 -50 -20 -86t-54 -59.5t-79.5 -35t-97.5 -11.5q-62 0 -114.5 15t-86.5 35v148zM217 796l42 -46l42 46h126l-108 -133h-120l-108 133h126z" />
    <glyph glyph-name="scaron" unicode="&#x161;" horiz-adv-x="411" 
d="M26 165q16 -13 36.5 -23.5t42 -18t42.5 -11.5t38 -4q23 0 37 6t14 21q0 14 -10.5 20t-30.5 11l-35 9q-63 14 -99.5 45.5t-36.5 92.5q0 35 14 62.5t38.5 46t58 28.5t73.5 10q48 0 86 -10t71 -30v-129q-32 23 -68 37.5t-74 14.5q-20 0 -32.5 -6.5t-12.5 -20.5
q0 -13 9 -18.5t26 -10.5l41 -12q73 -20 105 -52.5t32 -89.5q0 -36 -14.5 -63t-40.5 -44.5t-61.5 -26.5t-77.5 -9q-48 0 -93.5 11t-77.5 32v132zM154 498l-96 151h116l40 -56l40 56h116l-96 -151h-120z" />
    <glyph glyph-name="Tcedilla" unicode="&#x162;" horiz-adv-x="580" 
d="M560 614v-138h-190v-476h-161v476h-189v138h540zM256 -172q-20 6 -34 23.5t-14 43.5q0 32 23 52t58 20q32 0 56.5 -20.5t24.5 -57.5q0 -26 -11 -46.5t-28 -40.5l-29 -38h-95z" />
    <glyph glyph-name="tcedilla" unicode="&#x163;" horiz-adv-x="354" 
d="M141 -172q-20 6 -34 23.5t-14 43.5q0 32 23 52t58 20q32 0 56.5 -20.5t24.5 -57.5q0 -26 -11 -46.5t-28 -40.5l-29 -38h-95zM94 0v328h-78v122h78v124h156v-124h88v-122h-88v-328h-156z" />
    <glyph glyph-name="Tcaron" unicode="&#x164;" horiz-adv-x="580" 
d="M560 614v-138h-190v-476h-161v476h-189v138h540zM248 796l42 -46l42 46h126l-108 -133h-120l-108 133h126z" />
    <glyph glyph-name="tcaron" unicode="&#x165;" horiz-adv-x="354" 
d="M94 0v328h-78v122h78v124h156v-124h88v-122h-88v-328h-156zM325 654h122l-44 -167h-121z" />
    <glyph glyph-name="Tbar" unicode="&#x166;" horiz-adv-x="580" 
d="M560 614v-138h-190v-113h91v-130h-91v-233h-161v233h-91v130h91v113h-189v138h540z" />
    <glyph glyph-name="tbar" unicode="&#x167;" horiz-adv-x="354" 
d="M307 269v-111h-57v-158h-156v158h-53v111h53v59h-78v122h78v124h156v-124h88v-122h-88v-59h57z" />
    <glyph glyph-name="Utilde" unicode="&#x168;" horiz-adv-x="613" 
d="M307 -10q-61 0 -110.5 17t-84.5 50t-54 82t-19 112v363h160v-349q0 -66 28.5 -99t79.5 -33q50 0 78.5 33t28.5 99v349h160v-364q0 -63 -19 -111.5t-54 -81.5t-84 -50t-110 -17zM464 809q0 -30 -4.5 -57.5t-15 -48t-27 -32.5t-41.5 -12q-18 0 -33.5 5.5t-29.5 12t-26.5 12
t-25.5 5.5q-24 0 -26 -31h-85q0 30 4.5 57t15 48t27 33t41.5 12q18 0 33.5 -5.5t29.5 -12t26.5 -12t25.5 -5.5q24 0 26 31h85z" />
    <glyph glyph-name="utilde" unicode="&#x169;" horiz-adv-x="517" 
d="M318 0v39q-18 -21 -50 -35t-70 -14q-75 0 -116.5 45t-41.5 120v295h156v-258q0 -29 14 -47t44 -18q22 0 40 13.5t24 36.5v273h157v-450h-157zM407 647q0 -30 -4.5 -57.5t-15 -48t-27 -32.5t-41.5 -12q-17 0 -30.5 5.5t-24.5 12.5t-21.5 12.5t-22.5 5.5t-18.5 -9t-6.5 -24
h-86q0 30 4.5 57.5t15 48t27 32.5t41.5 12q17 0 30.5 -5.5t24.5 -12.5t21.5 -12.5t22.5 -5.5q11 0 18 9t7 24h86z" />
    <glyph glyph-name="Umacron" unicode="&#x16a;" horiz-adv-x="613" 
d="M307 -10q-61 0 -110.5 17t-84.5 50t-54 82t-19 112v363h160v-349q0 -66 28.5 -99t79.5 -33q50 0 78.5 33t28.5 99v349h160v-364q0 -63 -19 -111.5t-54 -81.5t-84 -50t-110 -17zM440 774v-108h-265v108h265z" />
    <glyph glyph-name="umacron" unicode="&#x16b;" horiz-adv-x="517" 
d="M318 0v39q-18 -21 -50 -35t-70 -14q-75 0 -116.5 45t-41.5 120v295h156v-258q0 -29 14 -47t44 -18q22 0 40 13.5t24 36.5v273h157v-450h-157zM385 612v-108h-253v108h253z" />
    <glyph glyph-name="Ubreve" unicode="&#x16c;" horiz-adv-x="613" 
d="M307 -10q-61 0 -110.5 17t-84.5 50t-54 82t-19 112v363h160v-349q0 -66 28.5 -99t79.5 -33q50 0 78.5 33t28.5 99v349h160v-364q0 -63 -19 -111.5t-54 -81.5t-84 -50t-110 -17zM307 658q-63 0 -103.5 37t-40.5 109h108q0 -21 9.5 -31.5t26.5 -10.5q36 0 36 42h108
q0 -72 -40.5 -109t-103.5 -37z" />
    <glyph glyph-name="ubreve" unicode="&#x16d;" horiz-adv-x="517" 
d="M318 0v39q-18 -21 -50 -35t-70 -14q-75 0 -116.5 45t-41.5 120v295h156v-258q0 -29 14 -47t44 -18q22 0 40 13.5t24 36.5v273h157v-450h-157zM258 488q-62 0 -102.5 38t-40.5 112h108q0 -47 35 -47q36 0 36 47h107q0 -74 -40.5 -112t-102.5 -38z" />
    <glyph glyph-name="Uring" unicode="&#x16e;" horiz-adv-x="613" 
d="M307 -10q-61 0 -110.5 17t-84.5 50t-54 82t-19 112v363h160v-349q0 -66 28.5 -99t79.5 -33q50 0 78.5 33t28.5 99v349h160v-364q0 -63 -19 -111.5t-54 -81.5t-84 -50t-110 -17zM415 747q0 -22 -8.5 -41t-23 -33.5t-34 -22.5t-42.5 -8t-42.5 8t-34 22.5t-23 33.5t-8.5 41
t8.5 41t23 33.5t34 22.5t42.5 8t42.5 -8t34 -22.5t23 -33.5t8.5 -41zM343 747q0 15 -10 25.5t-26 10.5q-15 0 -25.5 -10.5t-10.5 -25.5t10.5 -25.5t25.5 -10.5q16 0 26 10.5t10 25.5z" />
    <glyph glyph-name="uring" unicode="&#x16f;" horiz-adv-x="517" 
d="M318 0v39q-18 -21 -50 -35t-70 -14q-75 0 -116.5 45t-41.5 120v295h156v-258q0 -29 14 -47t44 -18q22 0 40 13.5t24 36.5v273h157v-450h-157zM366 589q0 -22 -8.5 -41t-23 -33t-34 -22t-42.5 -8t-42.5 8t-34 22t-23 33t-8.5 41t8.5 41.5t23 33.5t34 22.5t42.5 8.5
t42.5 -8.5t34 -22.5t23 -33.5t8.5 -41.5zM294 589q0 16 -10 26.5t-26 10.5q-15 0 -25.5 -10.5t-10.5 -26.5q0 -14 10.5 -24.5t25.5 -10.5q16 0 26 10.5t10 24.5z" />
    <glyph glyph-name="Uhungarumlaut" unicode="&#x170;" horiz-adv-x="613" 
d="M307 -10q-61 0 -110.5 17t-84.5 50t-54 82t-19 112v363h160v-349q0 -66 28.5 -99t79.5 -33q50 0 78.5 33t28.5 99v349h160v-364q0 -63 -19 -111.5t-54 -81.5t-84 -50t-110 -17zM235 796h130l-76 -130h-129zM402 796h130l-77 -130h-129z" />
    <glyph glyph-name="uhungarumlaut" unicode="&#x171;" horiz-adv-x="517" 
d="M318 0v39q-18 -21 -50 -35t-70 -14q-75 0 -116.5 45t-41.5 120v295h156v-258q0 -29 14 -47t44 -18q22 0 40 13.5t24 36.5v273h157v-450h-157zM191 650h123l-77 -150h-122zM350 650h122l-77 -150h-121z" />
    <glyph glyph-name="Uogonek" unicode="&#x172;" horiz-adv-x="613" 
d="M307 -10q-61 0 -110.5 17t-84.5 50t-54 82t-19 112v363h160v-349q0 -66 28.5 -99t79.5 -33q50 0 78.5 33t28.5 99v349h160v-364q0 -81 -29 -134t-86 -91q-51 -33 -70 -59t-19 -41q0 -19 20 -19q8 0 15.5 3.5t19.5 11.5v-87q-14 -8 -29.5 -13.5t-35.5 -5.5q-40 0 -66 20
t-26 59q0 26 13 49.5t35 46.5h-9z" />
    <glyph glyph-name="uogonek" unicode="&#x173;" horiz-adv-x="517" 
d="M475 0q-16 -18 -26 -30t-16 -19.5t-8 -13.5t-2 -12q0 -19 20 -19q8 0 15.5 3.5t19.5 11.5v-87q-14 -8 -29.5 -13.5t-35.5 -5.5q-40 0 -66 20t-26 59q0 29 16 54t39 52h-58v39q-18 -21 -50 -35t-70 -14q-75 0 -116.5 45t-41.5 120v295h156v-258q0 -29 14 -47t44 -18
q22 0 40 13.5t24 36.5v273h157v-450z" />
    <glyph glyph-name="Wcircumflex" unicode="&#x174;" horiz-adv-x="820" 
d="M567 253l85 361h162l-162 -614h-147l-95 360l-96 -360h-147l-161 614h164l86 -361l95 361h122zM452 666l-42 45l-42 -45h-126l108 132h120l108 -132h-126z" />
    <glyph glyph-name="wcircumflex" unicode="&#x175;" horiz-adv-x="698" 
d="M541 450h150l-145 -450h-133l-64 228l-64 -228h-133l-145 450h156l71 -244l68 244h100l67 -244zM389 498l-40 55l-40 -55h-116l96 151h120l96 -151h-116z" />
    <glyph glyph-name="Ycircumflex" unicode="&#x176;" horiz-adv-x="612" 
d="M607 614l-222 -396v-218h-161v218l-218 396h174l129 -240l129 240h169zM348 666l-42 45l-42 -45h-126l108 132h120l108 -132h-126z" />
    <glyph glyph-name="ycircumflex" unicode="&#x177;" horiz-adv-x="502" 
d="M175 11l-168 439h163l86 -256l84 256h156l-232 -609h-155zM296 498l-40 55l-40 -55h-116l96 151h120l96 -151h-116z" />
    <glyph glyph-name="Ydieresis" unicode="&#x178;" horiz-adv-x="612" 
d="M607 614l-222 -396v-218h-161v218l-218 396h174l129 -240l129 240h169zM137 734q0 33 22.5 56t55.5 23q32 0 55.5 -23t23.5 -56t-23.5 -56t-55.5 -23q-33 0 -55.5 23t-22.5 56zM318 734q0 33 23 56t55 23t55.5 -23t23.5 -56t-23.5 -56t-55.5 -23t-55 23t-23 56z" />
    <glyph glyph-name="Zacute" unicode="&#x179;" horiz-adv-x="554" 
d="M20 0v4l266 472h-254v138h497v-4l-262 -471h259v-139h-506zM280 796h161l-89 -130h-154z" />
    <glyph glyph-name="zacute" unicode="&#x17a;" horiz-adv-x="444" 
d="M16 0v4l184 324h-173v122h392v-4l-175 -323h175v-123h-403zM230 650h149l-87 -150h-144z" />
    <glyph glyph-name="Zdotaccent" unicode="&#x17b;" horiz-adv-x="554" 
d="M20 0v4l266 472h-254v138h497v-4l-262 -471h259v-139h-506zM368 743q0 -39 -26.5 -62t-62.5 -23t-62.5 23t-26.5 62q0 38 26.5 61t62.5 23t62.5 -23t26.5 -61z" />
    <glyph glyph-name="zdotaccent" unicode="&#x17c;" horiz-adv-x="444" 
d="M16 0v4l184 324h-173v122h392v-4l-175 -323h175v-123h-403zM314 579q0 -38 -26.5 -61t-62.5 -23t-62.5 23t-26.5 61q0 39 26.5 62t62.5 23t62.5 -23t26.5 -62z" />
    <glyph glyph-name="Zcaron" unicode="&#x17d;" horiz-adv-x="554" 
d="M20 0v4l266 472h-254v138h497v-4l-262 -471h259v-139h-506zM238 796l42 -46l42 46h126l-108 -133h-120l-108 133h126z" />
    <glyph glyph-name="zcaron" unicode="&#x17e;" horiz-adv-x="444" 
d="M16 0v4l184 324h-173v122h392v-4l-175 -323h175v-123h-403zM165 498l-96 151h116l40 -56l40 56h116l-96 -151h-120z" />
    <glyph glyph-name="florin" unicode="&#x192;" horiz-adv-x="420" 
d="M127 356l16 93q30 175 188 175q22 0 40.5 -3.5t32.5 -8.5v-128q-18 9 -43 9q-49 0 -60 -53l-15 -84h79v-122h-100l-39 -222q-7 -41 -19.5 -73t-33.5 -55t-51.5 -35t-73.5 -12q-23 0 -42.5 3.5t-33.5 8.5v114q9 -5 20 -7t22 -2q25 0 36 13.5t16 39.5l39 227h-58v122h80z
" />
    <glyph glyph-name="Aringacute" unicode="&#x1fa;" horiz-adv-x="646" 
d="M427 717q0 -18 -8 -33.5t-22.5 -27t-34 -18.5t-41.5 -7q-23 0 -42 7t-33.5 18.5t-22.5 27t-8 33.5q0 36 30.5 61t75.5 25t75.5 -25t30.5 -61zM311 923h160l-70 -102h-153zM357 717q0 13 -10 21t-26 8t-26.5 -8t-10.5 -21q0 -12 10.5 -20.5t26.5 -8.5t26 8.5t10 20.5z
M639 0h-163l-44 119h-223l-43 -119h-159l234 614h164zM384 251l-63 173l-63 -173h126z" />
    <glyph glyph-name="aringacute" unicode="&#x1fb;" horiz-adv-x="479" 
d="M343 563q0 -18 -8 -33.5t-22.5 -27t-34 -18.5t-41.5 -7q-23 0 -42.5 7t-34 18.5t-22.5 27t-8 33.5q0 36 30.5 61.5t76.5 25.5q45 0 75.5 -25.5t30.5 -61.5zM273 563q0 13 -10 21.5t-26 8.5q-17 0 -27 -8.5t-10 -21.5q0 -12 10 -20.5t27 -8.5q16 0 26 8.5t10 20.5z
M227 769h160l-70 -102h-153zM289 271q0 26 -24 43t-72 17q-32 0 -64 -8t-59 -24v126q28 15 70.5 25t90.5 10q100 0 154.5 -46t54.5 -136v-278h-151v23q-11 -11 -40.5 -21t-65.5 -10q-33 0 -63 9.5t-52.5 27.5t-36 45t-13.5 63q0 33 13.5 59t36.5 45t55 29t68 10
q29 0 56.5 -7.5t41.5 -17.5v16zM289 152q-8 14 -25 22.5t-38 8.5q-23 0 -42.5 -10t-19.5 -33t19.5 -33.5t42.5 -10.5q21 0 38 8t25 22v26z" />
    <glyph glyph-name="AEacute" unicode="&#x1fc;" horiz-adv-x="898" 
d="M864 476h-261v-96h236v-135h-236v-106h261v-139h-419v119h-202l-66 -119h-170l345 614h512v-138zM445 251v233l-129 -233h129zM599 796h161l-89 -130h-154z" />
    <glyph glyph-name="aeacute" unicode="&#x1fd;" horiz-adv-x="724" 
d="M517 -10q-104 0 -169 57q-31 -25 -69 -40.5t-94 -15.5q-33 0 -63 9.5t-53 27t-36.5 43.5t-13.5 59q0 35 15 62.5t40.5 46t60.5 28t74 9.5h77v5q-5 23 -28.5 37.5t-66.5 14.5q-32 0 -62.5 -9t-56.5 -25v126q27 15 67.5 25t86.5 10q97 0 141 -50q23 23 57 36.5t72 13.5
q51 0 90 -16.5t65 -46.5t39.5 -71.5t13.5 -91.5v-46h-280q11 -40 43 -57.5t75 -17.5q36 0 65.5 8t64.5 28v-119q-27 -20 -67 -30t-88 -10zM218 105q25 0 43 9.5t27 26.5v47h-64q-24 0 -42.5 -9.5t-18.5 -32.5q0 -21 16.5 -31t38.5 -10zM497 344q-27 0 -46.5 -17.5
t-27.5 -50.5h140q-2 29 -19 48.5t-47 19.5zM390 650h149l-87 -150h-144z" />
    <glyph glyph-name="Oslashacute" unicode="&#x1fe;" horiz-adv-x="652" 
d="M92 100q-32 42 -49 94t-17 113q0 69 22 127t61.5 100.5t94.5 66t122 23.5q54 0 99.5 -15.5t83.5 -44.5l54 61l56 -47l-59 -65q32 -41 49 -93t17 -113q0 -69 -22 -127t-61.5 -100t-95 -66t-121.5 -24q-54 0 -100 15t-83 44l-53 -60l-56 47zM188 307q0 -24 3.5 -45t9.5 -40
l208 232q-34 29 -83 29q-63 0 -100.5 -48t-37.5 -128zM464 307q0 23 -3.5 44.5t-9.5 39.5l-208 -232q34 -28 83 -28q62 0 100 48t38 128zM327 796h161l-89 -130h-154z" />
    <glyph glyph-name="oslashacute" unicode="&#x1ff;" horiz-adv-x="507" 
d="M75 68q-25 31 -38.5 70t-13.5 87q0 52 17 95.5t47 74.5t72.5 48t93.5 17q39 0 73 -10t62 -29l42 47l45 -37l-44 -50q25 -30 38.5 -69.5t13.5 -86.5q0 -52 -16.5 -95.5t-47 -74.5t-73 -48t-93.5 -17q-40 0 -73.5 10t-61.5 29l-43 -48l-45 37zM332 225q0 19 -5 39
l-118 -132q19 -16 44 -16q37 0 58 31t21 78zM175 225q0 -23 4 -39l118 132q-19 16 -44 16q-36 0 -57 -31t-21 -78zM258 650h149l-87 -150h-144z" />
    <glyph glyph-name="Scommaaccent" unicode="&#x218;" horiz-adv-x="504" 
d="M32 188q40 -27 92.5 -45.5t104.5 -18.5q38 0 66.5 10t28.5 39q0 23 -13.5 33t-38.5 19l-93 27q-78 23 -119 64.5t-41 118.5q0 46 18 81t49.5 59t74 36.5t90.5 12.5q63 0 109 -12.5t84 -33.5v-148q-42 29 -87.5 45t-98.5 16q-35 0 -58 -10.5t-23 -33.5q0 -21 13.5 -31
t37.5 -18l93 -28q85 -26 124 -71.5t39 -116.5q0 -50 -20 -86t-54 -59.5t-79.5 -35t-97.5 -11.5q-62 0 -114.5 15t-86.5 35v148zM213 -172q-20 6 -34 23.5t-14 43.5q0 32 23 52t58 20q32 0 56.5 -20.5t24.5 -57.5q0 -26 -11 -46.5t-28 -40.5l-29 -38h-95z" />
    <glyph glyph-name="scommaaccent" unicode="&#x219;" horiz-adv-x="411" 
d="M170 -172q-20 6 -34 23.5t-14 43.5q0 32 23 52t58 20q32 0 56.5 -20.5t24.5 -57.5q0 -26 -11 -46.5t-28 -40.5l-29 -38h-95zM26 165q16 -13 36.5 -23.5t42 -18t42.5 -11.5t38 -4q23 0 37 6t14 21q0 14 -10.5 20t-30.5 11l-35 9q-63 14 -99.5 45.5t-36.5 92.5
q0 35 14 62.5t38.5 46t58 28.5t73.5 10q48 0 86 -10t71 -30v-129q-32 23 -68 37.5t-74 14.5q-20 0 -32.5 -6.5t-12.5 -20.5q0 -13 9 -18.5t26 -10.5l41 -12q73 -20 105 -52.5t32 -89.5q0 -36 -14.5 -63t-40.5 -44.5t-61.5 -26.5t-77.5 -9q-48 0 -93.5 11t-77.5 32v132z" />
    <glyph glyph-name="uni0237" unicode="&#x237;" horiz-adv-x="241" 
d="M199 10q0 -85 -43 -132t-128 -47q-37 0 -57 7v118q5 -1 10.5 -1.5t12.5 -0.5q24 0 36 11t12 39v446h157v-440z" />
    <glyph glyph-name="circumflex" unicode="&#x2c6;" 
d="M290 498l-40 55l-40 -55h-116l96 151h120l96 -151h-116z" />
    <glyph glyph-name="caron" unicode="&#x2c7;" 
d="M190 498l-96 151h116l40 -56l40 56h116l-96 -151h-120z" />
    <glyph glyph-name="breve" unicode="&#x2d8;" 
d="M250 488q-62 0 -102.5 38t-40.5 112h108q0 -47 35 -47q36 0 36 47h107q0 -74 -40.5 -112t-102.5 -38z" />
    <glyph glyph-name="dotaccent" unicode="&#x2d9;" 
d="M339 579q0 -38 -26.5 -61t-62.5 -23t-62.5 23t-26.5 61q0 39 26.5 62t62.5 23t62.5 -23t26.5 -62z" />
    <glyph glyph-name="ring" unicode="&#x2da;" 
d="M358 589q0 -22 -8.5 -41t-23 -33t-34 -22t-42.5 -8t-42.5 8t-34 22t-23 33t-8.5 41t8.5 41.5t23 33.5t34 22.5t42.5 8.5t42.5 -8.5t34 -22.5t23 -33.5t8.5 -41.5zM286 589q0 16 -10 26.5t-26 10.5q-15 0 -25.5 -10.5t-10.5 -26.5q0 -14 10.5 -24.5t25.5 -10.5
q16 0 26 10.5t10 24.5z" />
    <glyph glyph-name="ogonek" unicode="&#x2db;" 
d="M326 8q-17 -20 -28 -33t-17.5 -22t-9 -15.5t-2.5 -12.5q0 -19 19 -19q9 0 16 3.5t19 11.5v-87q-14 -8 -29 -13.5t-36 -5.5q-40 0 -66 20t-26 59q0 32 18.5 58.5t44.5 55.5h97z" />
    <glyph glyph-name="tilde" unicode="&#x2dc;" 
d="M399 647q0 -30 -4.5 -57.5t-15 -48t-27 -32.5t-41.5 -12q-17 0 -30.5 5.5t-24.5 12.5t-21.5 12.5t-22.5 5.5t-18.5 -9t-6.5 -24h-86q0 30 4.5 57.5t15 48t27 32.5t41.5 12q17 0 30.5 -5.5t24.5 -12.5t21.5 -12.5t22.5 -5.5q11 0 18 9t7 24h86z" />
    <glyph glyph-name="hungarumlaut" unicode="&#x2dd;" 
d="M147 650h123l-77 -150h-122zM306 650h122l-77 -150h-121z" />
    <glyph glyph-name="gravecomb" unicode="&#x300;" 
d="M134 650h149l82 -150h-144z" />
    <glyph glyph-name="acutecomb" unicode="&#x301;" 
d="M216 650h149l-87 -150h-144z" />
    <glyph glyph-name="circumflexcomb" unicode="&#x302;" 
d="M290 498l-40 55l-40 -55h-116l96 151h120l96 -151h-116z" />
    <glyph glyph-name="tildecomb" unicode="&#x303;" 
d="M399 647q0 -30 -4.5 -57.5t-15 -48t-27 -32.5t-41.5 -12q-17 0 -30.5 5.5t-24.5 12.5t-21.5 12.5t-22.5 5.5t-18.5 -9t-6.5 -24h-86q0 30 4.5 57.5t15 48t27 32.5t41.5 12q17 0 30.5 -5.5t24.5 -12.5t21.5 -12.5t22.5 -5.5q11 0 18 9t7 24h86z" />
    <glyph glyph-name="macroncomb" unicode="&#x304;" 
d="M376 612v-108h-253v108h253z" />
    <glyph glyph-name="brevecomb" unicode="&#x306;" 
d="M250 488q-62 0 -102.5 38t-40.5 112h108q0 -47 35 -47q36 0 36 47h107q0 -74 -40.5 -112t-102.5 -38z" />
    <glyph glyph-name="dotaccentcomb" unicode="&#x307;" 
d="M339 579q0 -38 -26.5 -61t-62.5 -23t-62.5 23t-26.5 61q0 39 26.5 62t62.5 23t62.5 -23t26.5 -62z" />
    <glyph glyph-name="dieresiscomb" unicode="&#x308;" 
d="M84 567q0 32 22.5 54.5t54.5 22.5t54.5 -22.5t22.5 -54.5t-22.5 -54t-54.5 -22t-54.5 22t-22.5 54zM261 567q0 32 22 54.5t54 22.5q16 0 30 -6t24.5 -16.5t17 -24.5t6.5 -30q0 -32 -23 -54t-55 -22t-54 22t-22 54z" />
    <glyph glyph-name="ringcomb" unicode="&#x30a;" 
d="M358 589q0 -22 -8.5 -41t-23 -33t-34 -22t-42.5 -8t-42.5 8t-34 22t-23 33t-8.5 41t8.5 41.5t23 33.5t34 22.5t42.5 8.5t42.5 -8.5t34 -22.5t23 -33.5t8.5 -41.5zM286 589q0 16 -10 26.5t-26 10.5q-15 0 -25.5 -10.5t-10.5 -26.5q0 -14 10.5 -24.5t25.5 -10.5
q16 0 26 10.5t10 24.5z" />
    <glyph glyph-name="hungarumlautcomb" unicode="&#x30b;" 
d="M147 650h123l-77 -150h-122zM306 650h122l-77 -150h-121z" />
    <glyph glyph-name="caroncomb" unicode="&#x30c;" 
d="M190 498l-96 151h116l40 -56l40 56h116l-96 -151h-120z" />
    <glyph glyph-name="commaturnedabovecomb" unicode="&#x312;" 
d="M279 629q20 -6 34.5 -23.5t14.5 -44.5q0 -32 -23.5 -52.5t-58.5 -20.5q-32 0 -56.5 20.5t-24.5 58.5q0 26 11 47t28 42l31 40h96z" />
    <glyph glyph-name="commaaccentcomb" unicode="&#x326;" 
d="M219 -172q-20 6 -34 23.5t-14 43.5q0 32 23 52t58 20q32 0 56.5 -20.5t24.5 -57.5q0 -26 -11 -46.5t-28 -40.5l-29 -38h-95z" />
    <glyph glyph-name="cedillacomb" unicode="&#x327;" 
d="M210 -40h134l-70 -141h-133z" />
    <glyph glyph-name="ogonekcomb" unicode="&#x328;" 
d="M326 8q-17 -20 -28 -33t-17.5 -22t-9 -15.5t-2.5 -12.5q0 -19 19 -19q9 0 16 3.5t19 11.5v-87q-14 -8 -29 -13.5t-36 -5.5q-40 0 -66 20t-26 59q0 32 18.5 58.5t44.5 55.5h97z" />
    <glyph glyph-name="Wgrave" unicode="&#x1e80;" horiz-adv-x="820" 
d="M567 253l85 361h162l-162 -614h-147l-95 360l-96 -360h-147l-161 614h164l86 -361l95 361h122zM248 796h161l82 -130h-154z" />
    <glyph glyph-name="wgrave" unicode="&#x1e81;" horiz-adv-x="698" 
d="M541 450h150l-145 -450h-133l-64 228l-64 -228h-133l-145 450h156l71 -244l68 244h100l67 -244zM193 650h149l82 -150h-144z" />
    <glyph glyph-name="Wacute" unicode="&#x1e82;" horiz-adv-x="820" 
d="M567 253l85 361h162l-162 -614h-147l-95 360l-96 -360h-147l-161 614h164l86 -361l95 361h122zM413 796h161l-89 -130h-154z" />
    <glyph glyph-name="wacute" unicode="&#x1e83;" horiz-adv-x="698" 
d="M541 450h150l-145 -450h-133l-64 228l-64 -228h-133l-145 450h156l71 -244l68 244h100l67 -244zM354 650h149l-87 -150h-144z" />
    <glyph glyph-name="Wdieresis" unicode="&#x1e84;" horiz-adv-x="820" 
d="M567 253l85 361h162l-162 -614h-147l-95 360l-96 -360h-147l-161 614h164l86 -361l95 361h122zM241 734q0 33 22.5 56t55.5 23q32 0 55.5 -23t23.5 -56t-23.5 -56t-55.5 -23q-33 0 -55.5 23t-22.5 56zM422 734q0 33 23 56t55 23t55.5 -23t23.5 -56t-23.5 -56t-55.5 -23
t-55 23t-23 56z" />
    <glyph glyph-name="wdieresis" unicode="&#x1e85;" horiz-adv-x="698" 
d="M541 450h150l-145 -450h-133l-64 228l-64 -228h-133l-145 450h156l71 -244l68 244h100l67 -244zM184 567q0 32 22.5 54.5t54.5 22.5t54.5 -22.5t22.5 -54.5t-22.5 -54t-54.5 -22t-54.5 22t-22.5 54zM361 567q0 32 22 54.5t54 22.5q16 0 30 -6t24.5 -16.5t17 -24.5
t6.5 -30q0 -32 -23 -54t-55 -22t-54 22t-22 54z" />
    <glyph glyph-name="Ygrave" unicode="&#x1ef2;" horiz-adv-x="612" 
d="M607 614l-222 -396v-218h-161v218l-218 396h174l129 -240l129 240h169zM146 796h161l82 -130h-154z" />
    <glyph glyph-name="ygrave" unicode="&#x1ef3;" horiz-adv-x="502" 
d="M175 11l-168 439h163l86 -256l84 256h156l-232 -609h-155zM102 650h149l82 -150h-144z" />
    <glyph glyph-name="endash" unicode="&#x2013;" horiz-adv-x="466" 
d="M431 315v-107h-395v107h395z" />
    <glyph glyph-name="emdash" unicode="&#x2014;" horiz-adv-x="837" 
d="M802 315v-107h-766v107h766z" />
    <glyph glyph-name="quoteleft" unicode="&#x2018;" horiz-adv-x="222" 
d="M134 500q27 -5 47 -25.5t20 -55.5q0 -38 -26.5 -63t-65.5 -25q-38 0 -65 25t-27 73q0 27 11 53t27 50l53 82h99z" />
    <glyph glyph-name="quoteright" unicode="&#x2019;" horiz-adv-x="222" 
d="M88 455q-27 5 -47 25.5t-20 55.5q0 38 26.5 63t65.5 25q38 0 65 -25t27 -73q0 -27 -11 -53t-27 -50l-53 -82h-99z" />
    <glyph glyph-name="quotesinglbase" unicode="&#x201a;" horiz-adv-x="222" 
d="M88 1q-27 5 -47 25.5t-20 55.5q0 38 26.5 63t65.5 25q38 0 65 -25t27 -73q0 -27 -11 -53t-27 -50l-53 -82h-99z" />
    <glyph glyph-name="quotedblleft" unicode="&#x201c;" horiz-adv-x="435" 
d="M134 500q27 -5 47 -25.5t20 -55.5q0 -38 -26.5 -63t-65.5 -25q-38 0 -65 25t-27 73q0 27 11 53t27 50l53 82h99zM347 500q27 -5 47 -25.5t20 -55.5q0 -38 -26.5 -63t-65.5 -25q-38 0 -65 25t-27 73q0 27 11 53t27 50l53 82h99z" />
    <glyph glyph-name="quotedblright" unicode="&#x201d;" horiz-adv-x="435" 
d="M88 455q-27 5 -47 25.5t-20 55.5q0 38 26.5 63t65.5 25q38 0 65 -25t27 -73q0 -27 -11 -53t-27 -50l-53 -82h-99zM301 455q-27 5 -47 25.5t-20 55.5q0 38 26.5 63t65.5 25q38 0 65 -25t27 -73q0 -27 -11 -53t-27 -50l-53 -82h-99z" />
    <glyph glyph-name="quotedblbase" unicode="&#x201e;" horiz-adv-x="435" 
d="M88 1q-27 5 -47 25.5t-20 55.5q0 38 26.5 63t65.5 25q38 0 65 -25t27 -73q0 -27 -11 -53t-27 -50l-53 -82h-99zM301 1q-27 5 -47 25.5t-20 55.5q0 38 26.5 63t65.5 25q38 0 65 -25t27 -73q0 -27 -11 -53t-27 -50l-53 -82h-99z" />
    <glyph glyph-name="dagger" unicode="&#x2020;" horiz-adv-x="345" 
d="M123 558v92h99v-92h99v-97h-99v-185h-99v185h-99v97h99z" />
    <glyph glyph-name="daggerdbl" unicode="&#x2021;" horiz-adv-x="349" 
d="M127 583v67h95v-67h102v-87h-102v-67h102v-86h-102v-67h-95v67h-101v86h101v67h-101v87h101z" />
    <glyph glyph-name="bullet" unicode="&#x2022;" horiz-adv-x="381" 
d="M357 261q0 -36 -13 -66t-35.5 -52t-53 -34t-64.5 -12q-35 0 -65 12t-53 34t-36 52t-13 66q0 37 13 68t36 53t53 34t65 12q34 0 64.5 -12t53 -34t35.5 -53t13 -68z" />
    <glyph glyph-name="ellipsis" unicode="&#x2026;" horiz-adv-x="710" 
d="M19 87q0 20 7 37t19.5 29.5t29.5 19.5t36 7q39 0 66 -26.5t27 -66.5t-27 -67t-66 -27q-19 0 -36 7t-29.5 20t-19.5 30t-7 37zM263 87q0 40 26.5 66.5t65.5 26.5t65.5 -26.5t26.5 -66.5t-26.5 -67t-65.5 -27t-65.5 27t-26.5 67zM506 87q0 20 7 37t19.5 29.5t29.5 19.5
t36 7q39 0 66 -26.5t27 -66.5t-27 -67t-66 -27q-19 0 -36 7t-29.5 20t-19.5 30t-7 37z" />
    <glyph glyph-name="perthousand" unicode="&#x2030;" horiz-adv-x="1001" 
d="M977 138q0 -31 -11.5 -58t-31 -47t-46 -31.5t-56.5 -11.5q-31 0 -58 11.5t-47 31.5t-31.5 47t-11.5 58q0 30 11.5 56.5t31.5 46t47 31t58 11.5q30 0 56.5 -11.5t46 -31t31 -46t11.5 -56.5zM884 138q0 22 -15.5 37t-36.5 15q-23 0 -39 -15t-16 -37q0 -23 16 -39t39 -16
q21 0 36.5 16t15.5 39zM117 476q0 -22 15.5 -37t36.5 -15q23 0 39 15t16 37q0 23 -16 39t-39 16q-21 0 -36.5 -16t-15.5 -39zM582 614l-394 -614h-90l394 614h90zM657 138q0 -31 -11.5 -58t-31 -47t-46.5 -31.5t-57 -11.5q-31 0 -58 11.5t-47 31.5t-31.5 47t-11.5 58
q0 30 11.5 56.5t31.5 46t47 31t58 11.5q30 0 57 -11.5t46.5 -31t31 -46t11.5 -56.5zM317 476q0 -30 -11.5 -56.5t-31.5 -46t-47 -31t-58 -11.5q-30 0 -56.5 11.5t-46 31t-31 46t-11.5 56.5q0 31 11.5 58t31 47t46 31.5t56.5 11.5q31 0 58 -11.5t47 -31.5t31.5 -47t11.5 -58z
M563 138q0 22 -15 37t-37 15q-23 0 -39 -15t-16 -37q0 -23 16 -39t39 -16q22 0 37 16t15 39z" />
    <glyph glyph-name="guilsinglleft" unicode="&#x2039;" horiz-adv-x="278" 
d="M25 222l92 164h136l-92 -164l92 -164h-136z" />
    <glyph glyph-name="guilsinglright" unicode="&#x203a;" horiz-adv-x="278" 
d="M117 222l-92 164h136l92 -164l-92 -164h-136z" />
    <glyph glyph-name="fraction" unicode="&#x2044;" horiz-adv-x="156" 
d="M-178 0l420 614h92l-420 -614h-92z" />
    <glyph glyph-name="zerosuperior" unicode="&#x2070;" horiz-adv-x="331" 
d="M166 258q-33 0 -61 13t-48 36.5t-31 56.5t-11 74t11 74.5t31 57t48 36.5t61 13t60.5 -13t47.5 -36.5t31 -57t11 -74.5t-11 -74t-31 -56.5t-47.5 -36.5t-60.5 -13zM166 529q-21 0 -32 -21.5t-11 -68.5t11 -68.5t32 -21.5q20 0 31 21.5t11 68.5t-11 68.5t-31 21.5z" />
    <glyph glyph-name="foursuperior" unicode="&#x2074;" horiz-adv-x="321" 
d="M179 409v51h90v-51h44v-87h-44v-58h-90v58h-166v59l112 233h102l-94 -205h46z" />
    <glyph glyph-name="fivesuperior" unicode="&#x2075;" horiz-adv-x="271" 
d="M134 492q55 0 91 -30t36 -84q0 -27 -10.5 -49t-29 -38t-43.5 -24.5t-54 -8.5q-36 0 -62 8.5t-46 21.5v92q17 -16 43.5 -27t53.5 -11q20 0 34.5 8.5t14.5 26.5t-14.5 27t-38.5 9q-20 0 -43.5 -3.5t-37.5 -9.5v214h213v-90h-130v-34q10 2 23 2z" />
    <glyph glyph-name="sixsuperior" unicode="&#x2076;" horiz-adv-x="297" 
d="M148 258q-62 0 -99 37t-37 93q0 23 7 45t26 54l74 127h109l-64 -113q4 2 11 2q21 -1 40.5 -8.5t35 -22t25 -35.5t9.5 -49q0 -56 -37.5 -93t-99.5 -37zM191 388q0 19 -13 31t-30 12t-29.5 -12t-12.5 -31t12.5 -30.5t29.5 -11.5t30 11.5t13 30.5z" />
    <glyph glyph-name="sevensuperior" unicode="&#x2077;" horiz-adv-x="287" 
d="M19 264l120 260h-133v90h281v-2l-159 -348h-109z" />
    <glyph glyph-name="eightsuperior" unicode="&#x2078;" horiz-adv-x="306" 
d="M153 338q16 0 26.5 8.5t10.5 22.5t-10.5 23t-26.5 9t-26.5 -9t-10.5 -23t10.5 -22.5t26.5 -8.5zM153 481q15 0 24.5 8.5t9.5 21.5q0 14 -9.5 22t-24.5 8t-24.5 -8t-9.5 -22q0 -13 9.5 -21.5t24.5 -8.5zM153 258q-29 0 -54 7t-43.5 20t-29.5 32t-11 43q0 30 15 50t38 29
q-20 11 -30.5 31t-10.5 43q0 26 10.5 45.5t27.5 33t40 20.5t48 7t48 -7t40 -20.5t27.5 -33t10.5 -45.5q0 -23 -10 -43t-31 -31q23 -9 38 -29t15 -50q0 -24 -11 -43t-29.5 -32t-44 -20t-53.5 -7z" />
    <glyph glyph-name="ninesuperior" unicode="&#x2079;" horiz-adv-x="297" 
d="M149 620q62 0 99 -37t37 -93q0 -23 -7 -45t-26 -54l-74 -127h-109l64 113q-4 -2 -11 -2q-21 1 -40.5 8.5t-35 22t-25 35.5t-9.5 49q0 56 37.5 93t99.5 37zM106 490q0 -19 13 -31t30 -12t29.5 12t12.5 31t-12.5 30.5t-29.5 11.5t-30 -11.5t-13 -30.5z" />
    <glyph glyph-name="zeroinferior" unicode="&#x2080;" horiz-adv-x="331" 
d="M166 -6q-33 0 -61 13t-48 36.5t-31 56.5t-11 74t11 74.5t31 57t48 36.5t61 13t60.5 -13t47.5 -36.5t31 -57t11 -74.5t-11 -74t-31 -56.5t-47.5 -36.5t-60.5 -13zM166 265q-21 0 -32 -21.5t-11 -68.5t11 -68.5t32 -21.5q20 0 31 21.5t11 68.5t-11 68.5t-31 21.5z" />
    <glyph glyph-name="oneinferior" unicode="&#x2081;" horiz-adv-x="233" 
d="M97 0v233l-87 -42v105l115 54h76v-350h-104z" />
    <glyph glyph-name="twoinferior" unicode="&#x2082;" horiz-adv-x="286" 
d="M277 0h-271v2l103 138q23 32 33.5 48.5t10.5 34.5q0 15 -10 24t-29 9q-26 0 -52 -14.5t-43 -26.5v101q20 16 53 27.5t75 11.5q54 0 85 -29t31 -77q0 -32 -16.5 -61t-36.5 -58l-27 -38h94v-92z" />
    <glyph glyph-name="threeinferior" unicode="&#x2083;" horiz-adv-x="274" 
d="M261 350v-2l-67 -134q31 -15 48 -40.5t17 -57.5q0 -29 -10.5 -52t-29 -38.5t-43 -23.5t-52.5 -8q-38 0 -63.5 8.5t-45.5 21.5v95q22 -18 46.5 -28t49.5 -10q48 0 48 35q0 22 -20 31.5t-46 9.5h-8t-8 -1v2l52 99h-112v93h244z" />
    <glyph glyph-name="fourinferior" unicode="&#x2084;" horiz-adv-x="321" 
d="M179 145v51h90v-51h44v-87h-44v-58h-90v58h-166v59l112 233h102l-94 -205h46z" />
    <glyph glyph-name="fiveinferior" unicode="&#x2085;" horiz-adv-x="271" 
d="M134 228q55 0 91 -30t36 -84q0 -27 -10.5 -49t-29 -38t-43.5 -24.5t-54 -8.5q-36 0 -62 8.5t-46 21.5v92q17 -16 43.5 -27t53.5 -11q20 0 34.5 8.5t14.5 26.5t-14.5 27t-38.5 9q-20 0 -43.5 -3.5t-37.5 -9.5v214h213v-90h-130v-34q10 2 23 2z" />
    <glyph glyph-name="sixinferior" unicode="&#x2086;" horiz-adv-x="297" 
d="M148 -6q-62 0 -99 37t-37 93q0 23 7 45t26 54l74 127h109l-64 -113q4 2 11 2q21 -1 40.5 -8.5t35 -22t25 -35.5t9.5 -49q0 -56 -37.5 -93t-99.5 -37zM191 124q0 19 -13 31t-30 12t-29.5 -12t-12.5 -31t12.5 -30.5t29.5 -11.5t30 11.5t13 30.5z" />
    <glyph glyph-name="seveninferior" unicode="&#x2087;" horiz-adv-x="287" 
d="M19 0l120 260h-133v90h281v-2l-159 -348h-109z" />
    <glyph glyph-name="eightinferior" unicode="&#x2088;" horiz-adv-x="306" 
d="M153 74q16 0 26.5 8.5t10.5 22.5t-10.5 23t-26.5 9t-26.5 -9t-10.5 -23t10.5 -22.5t26.5 -8.5zM153 217q15 0 24.5 8.5t9.5 21.5q0 14 -9.5 22t-24.5 8t-24.5 -8t-9.5 -22q0 -13 9.5 -21.5t24.5 -8.5zM153 -6q-29 0 -54 7t-43.5 20t-29.5 32t-11 43q0 30 15 50t38 29
q-20 11 -30.5 31t-10.5 43q0 26 10.5 45.5t27.5 33t40 20.5t48 7t48 -7t40 -20.5t27.5 -33t10.5 -45.5q0 -23 -10 -43t-31 -31q23 -9 38 -29t15 -50q0 -24 -11 -43t-29.5 -32t-44 -20t-53.5 -7z" />
    <glyph glyph-name="nineinferior" unicode="&#x2089;" horiz-adv-x="297" 
d="M149 356q62 0 99 -37t37 -93q0 -23 -7 -45t-26 -54l-74 -127h-109l64 113q-4 -2 -11 -2q-21 1 -40.5 8.5t-35 22t-25 35.5t-9.5 49q0 56 37.5 93t99.5 37zM106 226q0 -19 13 -31t30 -12t29.5 12t12.5 31t-12.5 30.5t-29.5 11.5t-30 -11.5t-13 -30.5z" />
    <glyph glyph-name="Euro" unicode="&#x20ac;" horiz-adv-x="506" 
d="M64 286v21v23h-44v77h56q26 101 98.5 159t176.5 58q39 0 71 -8.5t57 -24.5v-146q-54 38 -116 38q-45 0 -76.5 -20t-48.5 -56h144l-15 -77h-148q-1 -6 -1 -11.5v-11.5v-10.5t1 -10.5h140l-15 -77h-107q17 -37 49 -57.5t77 -20.5q62 0 116 38v-146q-25 -16 -57 -24.5
t-71 -8.5q-105 0 -178 58.5t-98 160.5h-55v77h44z" />
    <glyph glyph-name="uni2117" unicode="&#x2117;" horiz-adv-x="704" 
d="M669 307q0 -69 -25 -127t-68 -100.5t-101 -66t-123 -23.5t-123 23.5t-101 66t-68 100.5t-25 127t25 127t68 100.5t101 66t123 23.5t123 -23.5t101 -66t68 -100.5t25 -127zM622 307q0 59 -21.5 108.5t-58 85.5t-86 56.5t-104.5 20.5q-56 0 -105 -20.5t-85.5 -56.5
t-58 -85.5t-21.5 -108.5t21.5 -108.5t58 -85.5t85.5 -56.5t105 -20.5q55 0 104.5 20.5t86 56.5t58 85.5t21.5 108.5zM327 124h-106v369h170q61 0 99 -34t38 -97q0 -65 -38 -98.5t-99 -33.5h-64v-106zM424 362q0 18 -11 29.5t-34 11.5h-52v-83h52q23 0 34 11.5t11 30.5z" />
    <glyph glyph-name="trademark" unicode="&#x2122;" horiz-adv-x="604" 
d="M255 614v-73h-77v-181h-82v181h-76v73h235zM367 487v-127h-80v254h76l65 -93l66 93h76v-254h-80v127l-60 -80h-3z" />
    <glyph glyph-name="uni2153" unicode="&#x2153;" horiz-adv-x="705" 
d="M692 350v-2l-67 -134q31 -15 48 -40.5t17 -57.5q0 -29 -10.5 -52t-29 -38.5t-43 -23.5t-52.5 -8q-38 0 -63.5 8.5t-45.5 21.5v95q22 -18 46.5 -28t49.5 -10q48 0 48 35q0 22 -20 31.5t-46 9.5h-8t-8 -1v2l52 99h-112v93h244zM97 264v233l-87 -42v105l115 54h76v-350h-104
zM80 0l420 614h92l-420 -614h-92z" />
    <glyph glyph-name="uni2154" unicode="&#x2154;" horiz-adv-x="764" 
d="M751 350v-2l-67 -134q31 -15 48 -40.5t17 -57.5q0 -29 -10.5 -52t-29 -38.5t-43 -23.5t-52.5 -8q-38 0 -63.5 8.5t-45.5 21.5v95q22 -18 46.5 -28t49.5 -10q48 0 48 35q0 22 -20 31.5t-46 9.5h-8t-8 -1v2l52 99h-112v93h244zM277 264h-271v2l103 138q23 32 33.5 48.5
t10.5 34.5q0 15 -10 24t-29 9q-26 0 -52 -14.5t-43 -26.5v101q20 16 53 27.5t75 11.5q54 0 85 -29t31 -77q0 -32 -16.5 -61t-36.5 -58l-27 -38h94v-92zM138 0l420 614h92l-420 -614h-92z" />
    <glyph glyph-name="uni215B" unicode="&#x215b;" horiz-adv-x="701" 
d="M548 74q16 0 26.5 8.5t10.5 22.5t-10.5 23t-26.5 9t-26.5 -9t-10.5 -23t10.5 -22.5t26.5 -8.5zM548 217q15 0 24.5 8.5t9.5 21.5q0 14 -9.5 22t-24.5 8t-24.5 -8t-9.5 -22q0 -13 9.5 -21.5t24.5 -8.5zM548 -6q-29 0 -54 7t-43.5 20t-29.5 32t-11 43q0 30 15 50t38 29
q-20 11 -30.5 31t-10.5 43q0 26 10.5 45.5t27.5 33t40 20.5t48 7t48 -7t40 -20.5t27.5 -33t10.5 -45.5q0 -23 -10 -43t-31 -31q23 -9 38 -29t15 -50q0 -24 -11 -43t-29.5 -32t-44 -20t-53.5 -7zM97 264v233l-87 -42v105l115 54h76v-350h-104zM80 0l420 614h92l-420 -614h-92
z" />
    <glyph glyph-name="uni215C" unicode="&#x215c;" horiz-adv-x="709" 
d="M556 74q16 0 26.5 8.5t10.5 22.5t-10.5 23t-26.5 9t-26.5 -9t-10.5 -23t10.5 -22.5t26.5 -8.5zM556 217q15 0 24.5 8.5t9.5 21.5q0 14 -9.5 22t-24.5 8t-24.5 -8t-9.5 -22q0 -13 9.5 -21.5t24.5 -8.5zM556 -6q-29 0 -54 7t-43.5 20t-29.5 32t-11 43q0 30 15 50t38 29
q-20 11 -30.5 31t-10.5 43q0 26 10.5 45.5t27.5 33t40 20.5t48 7t48 -7t40 -20.5t27.5 -33t10.5 -45.5q0 -23 -10 -43t-31 -31q23 -9 38 -29t15 -50q0 -24 -11 -43t-29.5 -32t-44 -20t-53.5 -7zM261 614v-2l-67 -134q31 -15 48 -40.5t17 -57.5q0 -29 -10.5 -52t-29 -38.5
t-43 -23.5t-52.5 -8q-38 0 -63.5 8.5t-45.5 21.5v95q22 -18 46.5 -28t49.5 -10q48 0 48 35q0 22 -20 31.5t-46 9.5h-8t-8 -1v2l52 99h-112v93h244zM89 0l420 614h92l-420 -614h-92z" />
    <glyph glyph-name="uni215D" unicode="&#x215d;" horiz-adv-x="713" 
d="M560 74q16 0 26.5 8.5t10.5 22.5t-10.5 23t-26.5 9t-26.5 -9t-10.5 -23t10.5 -22.5t26.5 -8.5zM560 217q15 0 24.5 8.5t9.5 21.5q0 14 -9.5 22t-24.5 8t-24.5 -8t-9.5 -22q0 -13 9.5 -21.5t24.5 -8.5zM560 -6q-29 0 -54 7t-43.5 20t-29.5 32t-11 43q0 30 15 50t38 29
q-20 11 -30.5 31t-10.5 43q0 26 10.5 45.5t27.5 33t40 20.5t48 7t48 -7t40 -20.5t27.5 -33t10.5 -45.5q0 -23 -10 -43t-31 -31q23 -9 38 -29t15 -50q0 -24 -11 -43t-29.5 -32t-44 -20t-53.5 -7zM134 492q55 0 91 -30t36 -84q0 -27 -10.5 -49t-29 -38t-43.5 -24.5t-54 -8.5
q-36 0 -62 8.5t-46 21.5v92q17 -16 43.5 -27t53.5 -11q20 0 34.5 8.5t14.5 26.5t-14.5 27t-38.5 9q-20 0 -43.5 -3.5t-37.5 -9.5v214h213v-90h-130v-34q10 2 23 2zM92 0l420 614h92l-420 -614h-92z" />
    <glyph glyph-name="uni215E" unicode="&#x215e;" horiz-adv-x="665" 
d="M512 74q16 0 26.5 8.5t10.5 22.5t-10.5 23t-26.5 9t-26.5 -9t-10.5 -23t10.5 -22.5t26.5 -8.5zM512 217q15 0 24.5 8.5t9.5 21.5q0 14 -9.5 22t-24.5 8t-24.5 -8t-9.5 -22q0 -13 9.5 -21.5t24.5 -8.5zM512 -6q-29 0 -54 7t-43.5 20t-29.5 32t-11 43q0 30 15 50t38 29
q-20 11 -30.5 31t-10.5 43q0 26 10.5 45.5t27.5 33t40 20.5t48 7t48 -7t40 -20.5t27.5 -33t10.5 -45.5q0 -23 -10 -43t-31 -31q23 -9 38 -29t15 -50q0 -24 -11 -43t-29.5 -32t-44 -20t-53.5 -7zM19 264l120 260h-133v90h281v-2l-159 -348h-109zM42 0l420 614h92l-420 -614
h-92z" />
    <glyph glyph-name="minus" unicode="&#x2212;" horiz-adv-x="556" 
d="M505 357v-116h-454v116h454z" />
    <glyph glyph-name="uni2219" unicode="&#x2219;" horiz-adv-x="233" 
d="M24 262q0 20 7 37t19.5 29.5t29.5 19.5t36 7q39 0 66 -26.5t27 -66.5t-27 -67t-66 -27q-19 0 -36 7t-29.5 20t-19.5 30t-7 37z" />
    <glyph glyph-name="approxequal" unicode="&#x2248;" horiz-adv-x="574" 
d="M61 420q32 21 62.5 30.5t58.5 9.5q29 0 54 -6t49 -13.5t49 -13.5t54 -6t60 9t65 32v-109q-34 -22 -65 -31.5t-60 -9.5t-54 6t-49 13.5t-49 14t-54 6.5q-28 0 -58.5 -9.5t-62.5 -31.5v109zM61 246q32 23 62.5 32.5t58.5 9.5q29 0 54 -6.5t49 -14t49 -14t54 -6.5t60 9.5
t65 32.5v-109q-34 -22 -65 -31t-60 -9t-54 6t-49 13.5t-49 13.5t-54 6q-28 0 -58.5 -9.5t-62.5 -30.5v107z" />
    <glyph glyph-name="notequal" unicode="&#x2260;" horiz-adv-x="574" 
d="M330 444l60 93h96l-60 -93h87v-104h-153l-51 -79h204v-103h-270l-59 -93h-96l59 93h-86v103h152l51 79h-203v104h269z" />
    <glyph glyph-name="lessequal" unicode="&#x2264;" horiz-adv-x="442" 
d="M394 559v-123l-233 -68l233 -69v-122l-346 121v139zM394 154v-112h-346v112h346z" />
    <glyph glyph-name="greaterequal" unicode="&#x2265;" horiz-adv-x="442" 
d="M48 177v122l233 69l-233 68v123l346 -122v-139zM48 42v112h346v-112h-346z" />
    <glyph glyph-name="i.dot" horiz-adv-x="242" 
d="M42 0v450h157v-450h-157zM211 579q0 -38 -26.5 -61t-62.5 -23t-62.5 23t-26.5 61q0 39 26.5 62t62.5 23t62.5 -23t26.5 -62z" />
    <glyph glyph-name="zero.lt" horiz-adv-x="520" 
d="M260 -10q-57 0 -101.5 23t-75 65t-47 100.5t-16.5 128.5t16.5 128.5t47 100.5t75 65t101.5 23t101.5 -23t75 -65t47 -100.5t16.5 -128.5t-16.5 -128.5t-47 -100.5t-75 -65t-101.5 -23zM260 483q-24 0 -40.5 -14t-26 -38t-13.5 -56t-4 -68t4 -68t13.5 -56t26 -38t40.5 -14
t40 14t26 38t14 56t4 68t-4 68t-14 56t-26 38t-40 14z" />
    <glyph glyph-name="one.lt" horiz-adv-x="520" 
d="M204 138v302l-144 -71v153l192 92h107v-476h126v-138h-430v138h149z" />
    <glyph glyph-name="two.lt" horiz-adv-x="520" 
d="M477 0h-455v4l180 240q21 27 36.5 49t26 40.5t16 36t5.5 37.5q0 31 -19.5 49t-56.5 18q-24 0 -47.5 -7t-46 -18.5t-41.5 -24.5t-34 -25v154q35 29 89.5 50t121.5 21q46 0 83 -13.5t63 -37.5t40 -58t14 -76q0 -29 -8 -56.5t-21.5 -54.5t-31 -53.5t-37.5 -54.5l-60 -82h183
v-138z" />
    <glyph glyph-name="three.lt" horiz-adv-x="520" 
d="M472 614v-3l-128 -239q60 -22 94 -67t34 -106q0 -50 -19 -88.5t-51 -65.5t-75 -41t-91 -14q-66 0 -111.5 14.5t-79.5 37.5v147q38 -32 82.5 -50t90.5 -18q48 0 76 19.5t28 57.5q0 25 -13.5 42.5t-36.5 28t-52.5 14.5t-61.5 2v3l102 188h-211v138h423z" />
    <glyph glyph-name="four.lt" horiz-adv-x="520" 
d="M296 238v114h136v-114h69v-130h-69v-108h-136v108h-287v4l187 502h146l-136 -376h90z" />
    <glyph glyph-name="five.lt" horiz-adv-x="520" 
d="M246 403q49 0 91.5 -14t73.5 -40.5t48.5 -64.5t17.5 -86t-18.5 -86.5t-51.5 -65.5t-78 -41.5t-98 -14.5q-60 0 -105 14.5t-78 36.5v145q32 -29 77 -47.5t93 -18.5q22 0 42 4.5t35 14t24 23.5t9 34q0 40 -33 59.5t-83 19.5q-37 0 -75.5 -6.5t-67.5 -17.5v363h373v-138
h-248v-78q9 2 23.5 3.5t28.5 1.5z" />
    <glyph glyph-name="six.lt" horiz-adv-x="520" 
d="M260 -10q-50 0 -93 17t-74 47.5t-48.5 72.5t-17.5 91q0 39 13 78.5t45 94.5l129 223h171l-105 -185q8 2 15 2q45 -3 81.5 -21t63 -46.5t40.5 -66t14 -79.5q0 -49 -17.5 -91t-49 -72.5t-74 -47.5t-93.5 -17zM349 218q0 38 -25 64t-64 26q-37 0 -62.5 -26t-25.5 -64
t25.5 -63.5t62.5 -25.5q39 0 64 25.5t25 63.5z" />
    <glyph glyph-name="seven.lt" horiz-adv-x="520" 
d="M63 0l220 476h-257v138h484v-3l-279 -611h-168z" />
    <glyph glyph-name="eight.lt" horiz-adv-x="520" 
d="M261 114q34 0 56.5 18.5t22.5 49.5q0 32 -22.5 50t-56.5 18t-56.5 -18t-22.5 -50q0 -31 22.5 -49.5t56.5 -18.5zM261 378q29 0 49.5 17t20.5 45q0 29 -20.5 46.5t-49.5 17.5t-49.5 -17.5t-20.5 -46.5q0 -28 20.5 -45t49.5 -17zM261 -10q-48 0 -90.5 12t-74 35.5t-50 57
t-18.5 75.5q0 54 29 91t71 51q-38 18 -59 53t-21 80q0 43 17.5 76.5t46.5 56.5t68 34.5t81 11.5t81 -11.5t68 -34.5t46.5 -56.5t17.5 -76.5q0 -45 -21.5 -80t-58.5 -53q42 -14 70.5 -51t28.5 -91q0 -42 -18 -75.5t-49.5 -57t-74 -35.5t-90.5 -12z" />
    <glyph glyph-name="nine.lt" horiz-adv-x="520" 
d="M260 624q50 0 93 -17t74.5 -47.5t49 -72.5t17.5 -91q0 -39 -13.5 -78.5t-45.5 -94.5l-129 -223h-171l105 185q-8 -2 -15 -2q-45 3 -81.5 21t-63 46.5t-40.5 66t-14 79.5q0 49 17.5 91t49 72.5t74 47.5t93.5 17zM171 396q0 -38 25 -64t64 -26q38 0 63 26t25 64t-25 63.5
t-63 25.5q-39 0 -64 -25.5t-25 -63.5z" />
    <glyph glyph-name="backslash.cap" horiz-adv-x="394" 
d="M253 -64l-248 734h136l248 -734h-136z" />
    <glyph glyph-name="periodcentered.cap" horiz-adv-x="233" 
d="M24 295q0 20 7 37t19.5 29.5t29.5 19.5t36 7q39 0 66 -26.5t27 -66.5t-27 -67t-66 -27q-19 0 -36 7t-29.5 20t-19.5 30t-7 37z" />
    <glyph glyph-name="bullet.cap" horiz-adv-x="381" 
d="M357 295q0 -36 -13 -66.5t-35.5 -52t-53 -33.5t-64.5 -12q-35 0 -65 12t-53 33.5t-36 52t-13 66.5q0 37 13 68t36 53t53 34t65 12q34 0 64.5 -12t53 -34t35.5 -53t13 -68z" />
    <glyph glyph-name="exclamdown.cap" horiz-adv-x="239" 
d="M26 532q0 38 27.5 63.5t66.5 25.5q19 0 36 -6.5t29.5 -18.5t20 -28.5t7.5 -35.5t-7.5 -35t-20 -28t-29.5 -18.5t-36 -6.5q-39 0 -66.5 25t-27.5 63zM180 408l35 -408h-191l35 408h121z" />
    <glyph glyph-name="questiondown.cap" horiz-adv-x="446" 
d="M184 201q0 -31 20.5 -48t52.5 -17q34 0 64.5 14t50.5 30v-144q-30 -21 -70 -33.5t-82 -12.5q-45 0 -81.5 13.5t-62.5 37t-40 56.5t-14 72q0 49 19 84t42 61t42 48t19 46h146q0 -35 -16.5 -61.5t-36.5 -49.5t-36.5 -45.5t-16.5 -50.5zM313 532q0 -38 -27 -63t-66 -25
q-40 0 -67.5 25t-27.5 63q0 19 7.5 35.5t20 28.5t30 18.5t37.5 6.5q39 0 66 -25.5t27 -63.5z" />
    <glyph glyph-name="slash.cap" horiz-adv-x="394" 
d="M389 670l-248 -734h-136l248 734h136z" />
    <glyph glyph-name="asterisk.ss01" horiz-adv-x="344" 
d="M-246 616l59 -35v69h60v-69l59 35l30 -52l-60 -34l60 -34l-30 -52l-59 35v-69h-60v69l-59 -35l-29 52l59 34l-59 34z" />
    <glyph glyph-name="colon.tab" horiz-adv-x="260" 
d="M37 87q0 20 7 37t19.5 29.5t29.5 19.5t36 7q39 0 66 -26.5t27 -66.5t-27 -67t-66 -27q-19 0 -36 7t-29.5 20t-19.5 30t-7 37zM37 352q0 20 7 37t19.5 29.5t29.5 19.5t36 7q39 0 66 -26.5t27 -66.5t-27 -67t-66 -27q-19 0 -36 7t-29.5 20t-19.5 30t-7 37z" />
    <glyph glyph-name="comma.tab" horiz-adv-x="260" 
d="M105 10q-27 5 -47.5 26t-20.5 56q0 38 26.5 62.5t66.5 24.5q37 0 64.5 -24.5t27.5 -72.5q0 -27 -11 -53.5t-27 -50.5l-55 -83h-99z" />
    <glyph glyph-name="period.tab" horiz-adv-x="260" 
d="M37 87q0 20 7 37t19.5 29.5t29.5 19.5t36 7q39 0 66 -26.5t27 -66.5t-27 -67t-66 -27q-19 0 -36 7t-29.5 20t-19.5 30t-7 37z" />
    <glyph glyph-name="semicolon.tab" horiz-adv-x="260" 
d="M105 10q-27 5 -47.5 26t-20.5 56q0 38 26.5 62.5t66.5 24.5q37 0 64.5 -24.5t27.5 -72.5q0 -27 -11 -53.5t-27 -50.5l-55 -83h-99zM37 352q0 20 7 37t19.5 29.5t29.5 19.5t36 7q39 0 66 -26.5t27 -66.5t-27 -67t-66 -27q-19 0 -36 7t-29.5 20t-19.5 30t-7 37z" />
    <glyph glyph-name="braceleft.cap" horiz-adv-x="366" 
d="M235 95q0 -29 29 -29h82v-130h-124q-57 0 -93 36t-36 94v143q0 29 -29 29h-44v130h44q29 0 29 29v143q0 58 36 94t93 36h124v-130h-82q-29 0 -29 -29v-125q0 -32 -13.5 -51.5t-33.5 -31.5q20 -12 33.5 -31.5t13.5 -51.5v-125z" />
    <glyph glyph-name="braceright.cap" horiz-adv-x="366" 
d="M131 220q0 32 13.5 51.5t33.5 31.5q-20 12 -33.5 31.5t-13.5 51.5v125q0 29 -29 29h-82v130h124q57 0 93 -36t36 -94v-143q0 -29 29 -29h44v-130h-44q-29 0 -29 -29v-143q0 -58 -36 -94t-93 -36h-124v130h82q29 0 29 29v125z" />
    <glyph glyph-name="bracketleft.cap" horiz-adv-x="331" 
d="M311 66v-130h-265v734h265v-130h-119v-474h119z" />
    <glyph glyph-name="bracketright.cap" horiz-adv-x="331" 
d="M20 540v130h265v-734h-265v130h119v474h-119z" />
    <glyph glyph-name="parenleft.cap" horiz-adv-x="334" 
d="M30 303q0 71 20 131.5t56.5 108t89 80t118.5 47.5v-147q-63 -21 -102 -74.5t-39 -145.5t39 -145.5t102 -74.5v-147q-66 15 -118.5 47.5t-89 80t-56.5 108t-20 131.5z" />
    <glyph glyph-name="parenright.cap" horiz-adv-x="334" 
d="M304 303q0 -71 -20 -131.5t-56.5 -108t-89 -80t-118.5 -47.5v147q63 21 102 74.5t39 145.5t-39 145.5t-102 74.5v147q66 -15 118.5 -47.5t89 -80t56.5 -108t20 -131.5z" />
    <glyph glyph-name="emdash.cap" horiz-adv-x="837" 
d="M802 348v-107h-766v107h766z" />
    <glyph glyph-name="endash.cap" horiz-adv-x="466" 
d="M431 348v-107h-395v107h395z" />
    <glyph glyph-name="hyphen.cap" horiz-adv-x="312" 
d="M277 361v-132h-241v132h241z" />
    <glyph glyph-name="guillemotleft.cap" horiz-adv-x="451" 
d="M25 302l92 164h128l-92 -164l92 -164h-128zM206 302l92 164h128l-92 -164l92 -164h-128z" />
    <glyph glyph-name="guillemotright.cap" horiz-adv-x="451" 
d="M298 302l-92 164h128l92 -164l-92 -164h-128zM117 302l-92 164h128l92 -164l-92 -164h-128z" />
    <glyph glyph-name="guilsinglleft.cap" horiz-adv-x="278" 
d="M25 302l92 164h136l-92 -164l92 -164h-136z" />
    <glyph glyph-name="guilsinglright.cap" horiz-adv-x="278" 
d="M117 302l-92 164h136l92 -164l-92 -164h-136z" />
    <glyph glyph-name="slash_2" horiz-adv-x="380" 
d="M1327 479l-1479 -412l-20 62l1479 412z" />
    <glyph glyph-name="slash_3" horiz-adv-x="380" 
d="M1857 476l-1996 -406l-13 65l1996 406z" />
    <glyph glyph-name="slash_4" horiz-adv-x="380" 
d="M2406 452l-2526 -354l-11 66l2526 354z" />
    <glyph glyph-name="slash_5" horiz-adv-x="380" 
d="M2938 429l-3061 -315l-10 69l3063 315z" />
    <glyph glyph-name="slash_6" horiz-adv-x="380" 
d="M3383 422l-3502 -300l-9 69l3502 300z" />
    <glyph glyph-name="hyphen_alt1.ss01" horiz-adv-x="312" 
d="M277 358v-132h-241v132h241z" />
    <glyph glyph-name="space.tab" horiz-adv-x="260" 
 />
    <glyph glyph-name="space_dotbelowcomb" 
d="M337 -114q0 -38 -26 -60.5t-61 -22.5t-61 22.5t-26 60.5q0 37 26 59t61 22t61 -22t26 -59z" />
    <glyph glyph-name="space_uni0326" 
d="M219 -172q-20 6 -34 23.5t-14 43.5q0 32 23 52t58 20q32 0 56.5 -20.5t24.5 -57.5q0 -26 -11 -46.5t-28 -40.5l-29 -38h-95z" />
    <glyph glyph-name="space_uni0326.alt" 
d="M279 629q20 -6 34.5 -23.5t14.5 -44.5q0 -32 -23.5 -52.5t-58.5 -20.5q-32 0 -56.5 20.5t-24.5 58.5q0 26 11 47t28 42l31 40h96z" />
    <glyph glyph-name="cent.lt" horiz-adv-x="520" 
d="M230 10q-72 20 -116 78.5t-44 146.5t44 146.5t116 78.5v98h128v-93q20 -3 39 -9.5t33 -17.5v-132q-44 32 -102 32q-43 0 -73 -26t-30 -77t30 -77t73 -26q58 0 102 32v-132q-29 -22 -72 -28v-89h-128v95z" />
    <glyph glyph-name="dollar.lt" horiz-adv-x="520" 
d="M199 6q-46 5 -84.5 17.5t-64.5 28.5v142q38 -26 88 -44t100 -18q38 0 65 9.5t27 37.5q0 22 -13.5 31.5t-37.5 18.5l-88 25q-75 23 -114 63t-39 112q0 73 45 117t116 58v92h128v-91q35 -5 63 -15t54 -24v-142q-40 28 -83.5 43.5t-93.5 15.5q-34 0 -56 -10t-22 -32
q0 -20 13 -30t36 -16l88 -28q81 -26 118.5 -69t37.5 -110q0 -37 -11.5 -66t-32 -51t-49 -36.5t-62.5 -21.5v-99h-128v92z" />
    <glyph glyph-name="Euro.lt" horiz-adv-x="520" 
d="M74 286v21v23h-44v77h56q26 101 98.5 159t176.5 58q39 0 71 -8.5t57 -24.5v-146q-54 38 -116 38q-45 0 -76.5 -20t-48.5 -56h144l-15 -77h-148q-1 -6 -1 -11.5v-11.5v-10.5t1 -10.5h140l-15 -77h-107q17 -37 49 -57.5t77 -20.5q62 0 116 38v-146q-25 -16 -57 -24.5
t-71 -8.5q-105 0 -178 58.5t-98 160.5h-55v77h44z" />
    <glyph glyph-name="florin.lt" horiz-adv-x="520" 
d="M199 356l16 93q30 175 188 175q22 0 40.5 -3.5t32.5 -8.5v-128q-18 9 -43 9q-49 0 -60 -53l-15 -84h79v-122h-100l-39 -222q-7 -41 -19.5 -73t-33.5 -55t-51.5 -35t-73.5 -12q-23 0 -42.5 3.5t-33.5 8.5v114q9 -5 20 -7t22 -2q25 0 36 13.5t16 39.5l39 227h-58v122h80z
" />
    <glyph glyph-name="sterling.lt" horiz-adv-x="520" 
d="M111 363v47q0 49 16 88.5t46 67.5t72 43t93 15q40 0 74 -8.5t55 -21.5v-141q-21 14 -49 22.5t-62 8.5q-43 0 -68 -25t-25 -77v-19h117v-119h-117v-23q0 -26 -5 -51t-16 -40h240v-130h-436v130h45q10 17 15 37.5t5 53.5v23h-65v119h65z" />
    <glyph glyph-name="yen.lt" horiz-adv-x="520" 
d="M137 336l-127 278h168l85 -203l85 203h162l-130 -278h96v-92h-139v-48h139v-92h-139v-104h-157v104h-138v92h138v48h-138v92h95z" />
    <glyph glyph-name="approxequal.lt" horiz-adv-x="520" 
d="M35 420q32 21 62.5 30.5t58.5 9.5q29 0 54 -6t49 -13.5t49 -13.5t54 -6t60 9t65 32v-109q-34 -22 -65 -31.5t-60 -9.5t-54 6t-49 13.5t-49 14t-54 6.5q-28 0 -58.5 -9.5t-62.5 -31.5v109zM35 246q32 23 62.5 32.5t58.5 9.5q29 0 54 -6.5t49 -14t49 -14t54 -6.5t60 9.5
t65 32.5v-109q-34 -22 -65 -31t-60 -9t-54 6t-49 13.5t-49 13.5t-54 6q-28 0 -58.5 -9.5t-62.5 -30.5v107z" />
    <glyph glyph-name="divide.lt" horiz-adv-x="520" 
d="M488 357v-116h-454v116h454zM181 479q0 33 23.5 56t56.5 23q34 0 57.5 -23t23.5 -56t-23.5 -56t-57.5 -23q-33 0 -56.5 23t-23.5 56zM181 119q0 33 23.5 56t56.5 23q34 0 57.5 -23t23.5 -56t-23.5 -56t-57.5 -23q-33 0 -56.5 23t-23.5 56z" />
    <glyph glyph-name="equal.lt" horiz-adv-x="520" 
d="M487 261v-103h-452v103h452zM487 445v-105h-452v105h452z" />
    <glyph glyph-name="greater.lt" horiz-adv-x="520" 
d="M87 72v130l236 95l-236 96v129l345 -153v-144z" />
    <glyph glyph-name="greaterequal.lt" horiz-adv-x="520" 
d="M87 177v122l233 69l-233 68v123l346 -122v-139zM87 42v112h346v-112h-346z" />
    <glyph glyph-name="less.lt" horiz-adv-x="520" 
d="M432 522v-129l-236 -96l236 -95v-130l-345 153v144z" />
    <glyph glyph-name="lessequal.lt" horiz-adv-x="520" 
d="M433 559v-123l-233 -68l233 -69v-122l-346 121v139zM433 154v-112h-346v112h346z" />
    <glyph glyph-name="minus.lt" horiz-adv-x="520" 
d="M488 357v-116h-454v116h454z" />
    <glyph glyph-name="multiply.lt" horiz-adv-x="520" 
d="M140 499l120 -120l120 120l82 -81l-121 -120l121 -120l-82 -81l-120 120l-120 -120l-82 81l121 120l-121 120z" />
    <glyph glyph-name="notequal.lt" horiz-adv-x="520" 
d="M304 444l60 93h96l-60 -93h87v-104h-153l-51 -79h204v-103h-270l-59 -93h-96l59 93h-86v103h152l51 79h-203v104h269z" />
    <glyph glyph-name="percent.lt" horiz-adv-x="520" 
d="M19 500q0 26 9.5 48.5t26.5 39.5t39 26.5t48 9.5q25 0 48 -9.5t39.5 -26.5t26.5 -39.5t10 -48.5t-10 -48t-26.5 -38.5t-39.5 -26t-48 -9.5q-26 0 -48 9.5t-39 26t-26.5 38.5t-9.5 48zM97 500q0 -19 13 -31.5t32 -12.5t32.5 12.5t13.5 31.5t-13.5 32.5t-32.5 13.5
t-32 -13.5t-13 -32.5zM501 114q0 -26 -9.5 -48.5t-26.5 -39.5t-39.5 -26.5t-47.5 -9.5q-26 0 -48.5 9.5t-39 26.5t-26.5 39.5t-10 48.5q0 25 10 47.5t26.5 39t39 26t48.5 9.5q25 0 47.5 -9.5t39.5 -26t26.5 -39t9.5 -47.5zM423 114q0 19 -13 31.5t-32 12.5t-32.5 -12.5
t-13.5 -31.5t13.5 -32.5t32.5 -13.5t32 13.5t13 32.5zM495 614l-382 -614h-88l382 614h88z" />
    <glyph glyph-name="perthousand.lt" horiz-adv-x="800" 
d="M33 500q0 26 9.5 48.5t26 39.5t39 26.5t47.5 9.5q26 0 48.5 -9.5t39.5 -26.5t26.5 -39.5t9.5 -48.5t-9.5 -48t-26.5 -38.5t-39.5 -26t-48.5 -9.5q-25 0 -47.5 9.5t-39 26t-26 38.5t-9.5 48zM111 500q0 -19 13 -31.5t31 -12.5q20 0 33 12.5t13 31.5t-13 32.5t-33 13.5
q-18 0 -31 -13.5t-13 -32.5zM514 114q0 -26 -9.5 -48.5t-26 -39.5t-39 -26.5t-47.5 -9.5q-26 0 -48.5 9.5t-39.5 26.5t-26.5 39.5t-9.5 48.5q0 25 9.5 47.5t26.5 39t39.5 26t48.5 9.5q25 0 47.5 -9.5t39 -26t26 -39t9.5 -47.5zM436 114q0 19 -12.5 31.5t-31.5 12.5
t-32.5 -12.5t-13.5 -31.5t13.5 -32.5t32.5 -13.5t31.5 13.5t12.5 32.5zM521 614l-407 -614h-88l407 614h88zM779 114q0 -26 -9.5 -48.5t-26 -39.5t-39 -26.5t-47.5 -9.5q-26 0 -48.5 9.5t-39.5 26.5t-26.5 39.5t-9.5 48.5q0 25 9.5 47.5t26.5 39t39.5 26t48.5 9.5
q25 0 47.5 -9.5t39 -26t26 -39t9.5 -47.5zM701 114q0 19 -13 31.5t-31 12.5q-19 0 -32.5 -12.5t-13.5 -31.5t13.5 -32.5t32.5 -13.5q18 0 31 13.5t13 32.5z" />
    <glyph glyph-name="plus.lt" horiz-adv-x="520" 
d="M319 357h169v-116h-169v-168h-116v168h-169v116h169v169h116v-169z" />
    <glyph glyph-name="plusminus.lt" horiz-adv-x="520" 
d="M313 433h166v-104h-166v-128h-105v128h-165v104h165v128h105v-128zM479 153v-105h-436v105h436z" />
    <glyph glyph-name="percent.ss01" horiz-adv-x="380" 
d="M56 535q0 -14 9 -23t23 -9t23.5 9t9.5 23t-9.5 23.5t-23.5 9.5t-23 -9.5t-9 -23.5zM327 614l-212 -350h-62l212 350h62zM172 535q0 -17 -6.5 -32.5t-18 -26.5t-26.5 -17.5t-33 -6.5q-36 0 -59.5 24t-23.5 59t23.5 59.5t59.5 24.5q35 0 59.5 -24.5t24.5 -59.5zM259 341
q0 -14 9 -23t23 -9t23.5 9t9.5 23t-9.5 23.5t-23.5 9.5t-23 -9.5t-9 -23.5zM375 341q0 -17 -6.5 -32.5t-18 -26.5t-26.5 -17.5t-33 -6.5q-36 0 -59.5 24t-23.5 59t23.5 59.5t59.5 24.5q35 0 59.5 -24.5t24.5 -59.5z" />
    <glyph glyph-name="bar.cap" horiz-adv-x="223" 
d="M177 670v-734h-131v734h131z" />
    <glyph glyph-name="at.cap" horiz-adv-x="759" 
d="M538 240q-1 -5 -1.5 -8.5t-0.5 -6.5q0 -26 28 -26q44 0 70.5 43t26.5 124q0 53 -19.5 94t-54 69.5t-82 43.5t-102.5 15q-67 0 -122 -22t-94.5 -62.5t-61.5 -97t-22 -124.5q0 -79 28 -131t72 -83t97 -43.5t104 -12.5q70 0 123 13.5t101 34.5v-75q-38 -19 -96.5 -33
t-127.5 -14q-74 0 -143 20t-122.5 62t-86 107t-32.5 155q0 79 27.5 148t78 121t121 82t156.5 30q75 0 136.5 -22.5t106 -62.5t69 -94.5t24.5 -117.5q0 -62 -16.5 -107.5t-45 -76.5t-66.5 -46t-81 -15q-35 0 -66 12.5t-50 37.5q-16 -24 -43 -36t-56 -12q-33 0 -58.5 12
t-43 32.5t-26.5 48.5t-9 61q0 42 13.5 81t37.5 68.5t58.5 47t76.5 17.5q28 0 51.5 -10.5t33.5 -25.5l6 28h125zM430 351q-4 14 -17 22.5t-31 8.5q-32 0 -53 -27.5t-21 -66.5q0 -25 12.5 -40.5t38.5 -15.5q20 0 34 9.5t22 23.5z" />
    <glyph glyph-name="commaaccentcomb.alt" 
d="M279 629q20 -6 34.5 -23.5t14.5 -44.5q0 -32 -23.5 -52.5t-58.5 -20.5q-32 0 -56.5 20.5t-24.5 58.5q0 26 11 47t28 42l31 40h96z" />
    <glyph glyph-name="dieresiscomb.cap" 
d="M81 734q0 33 22.5 56t55.5 23q32 0 55.5 -23t23.5 -56t-23.5 -56t-55.5 -23q-33 0 -55.5 23t-22.5 56zM262 734q0 33 23 56t55 23t55.5 -23t23.5 -56t-23.5 -56t-55.5 -23t-55 23t-23 56z" />
    <glyph glyph-name="dotaccentcomb.cap" 
d="M339 743q0 -39 -26.5 -62t-62.5 -23t-62.5 23t-26.5 62q0 38 26.5 61t62.5 23t62.5 -23t26.5 -61z" />
    <glyph glyph-name="gravecomb.cap" 
d="M128 796h161l82 -130h-154z" />
    <glyph glyph-name="acutecomb.cap" 
d="M210 796h161l-89 -130h-154z" />
    <glyph glyph-name="hungarumlautcomb.cap" 
d="M139 796h130l-76 -130h-129zM306 796h130l-77 -130h-129z" />
    <glyph glyph-name="circumflexcomb.cap" 
d="M292 666l-42 45l-42 -45h-126l108 132h120l108 -132h-126z" />
    <glyph glyph-name="caroncomb.cap" 
d="M208 796l42 -46l42 46h126l-108 -133h-120l-108 133h126z" />
    <glyph glyph-name="brevecomb.cap" 
d="M250 658q-63 0 -103.5 37t-40.5 109h108q0 -21 9.5 -31.5t26.5 -10.5q36 0 36 42h108q0 -72 -40.5 -109t-103.5 -37z" />
    <glyph glyph-name="ringcomb.cap" 
d="M358 747q0 -22 -8.5 -41t-23 -33.5t-34 -22.5t-42.5 -8t-42.5 8t-34 22.5t-23 33.5t-8.5 41t8.5 41t23 33.5t34 22.5t42.5 8t42.5 -8t34 -22.5t23 -33.5t8.5 -41zM286 747q0 15 -10 25.5t-26 10.5q-15 0 -25.5 -10.5t-10.5 -25.5t10.5 -25.5t25.5 -10.5q16 0 26 10.5
t10 25.5z" />
    <glyph glyph-name="tildecomb.cap" 
d="M407 809q0 -30 -4.5 -57.5t-15 -48t-27 -32.5t-41.5 -12q-18 0 -33.5 5.5t-29.5 12t-26.5 12t-25.5 5.5q-24 0 -26 -31h-85q0 30 4.5 57t15 48t27 33t41.5 12q18 0 33.5 -5.5t29.5 -12t26.5 -12t25.5 -5.5q24 0 26 31h85z" />
    <glyph glyph-name="macroncomb.cap" 
d="M382 774v-108h-265v108h265z" />
    <glyph glyph-name="caron.Slovak" 
d="M204 650h122l-44 -167h-121z" />
    <glyph glyph-name="cedilla.alt" 
d="M210 -40h134l-70 -141h-133z" />
    <glyph glyph-name="acute.cap" 
d="M210 796h161l-89 -130h-154z" />
    <glyph glyph-name="breve.cap" 
d="M250 658q-63 0 -103.5 37t-40.5 109h108q0 -21 9.5 -31.5t26.5 -10.5q36 0 36 42h108q0 -72 -40.5 -109t-103.5 -37z" />
    <glyph glyph-name="caron.cap" 
d="M208 796l42 -46l42 46h126l-108 -133h-120l-108 133h126z" />
    <glyph glyph-name="circumflex.cap" 
d="M292 666l-42 45l-42 -45h-126l108 132h120l108 -132h-126z" />
    <glyph glyph-name="dieresis.cap" 
d="M81 734q0 33 22.5 56t55.5 23q32 0 55.5 -23t23.5 -56t-23.5 -56t-55.5 -23q-33 0 -55.5 23t-22.5 56zM262 734q0 33 23 56t55 23t55.5 -23t23.5 -56t-23.5 -56t-55.5 -23t-55 23t-23 56z" />
    <glyph glyph-name="dotaccent.cap" 
d="M339 743q0 -39 -26.5 -62t-62.5 -23t-62.5 23t-26.5 62q0 38 26.5 61t62.5 23t62.5 -23t26.5 -61z" />
    <glyph glyph-name="grave.cap" 
d="M128 796h161l82 -130h-154z" />
    <glyph glyph-name="hungarumlaut.cap" 
d="M139 796h130l-76 -130h-129zM306 796h130l-77 -130h-129z" />
    <glyph glyph-name="macron.cap" 
d="M382 774v-108h-265v108h265z" />
    <glyph glyph-name="ring.cap" 
d="M358 747q0 -22 -8.5 -41t-23 -33.5t-34 -22.5t-42.5 -8t-42.5 8t-34 22.5t-23 33.5t-8.5 41t8.5 41t23 33.5t34 22.5t42.5 8t42.5 -8t34 -22.5t23 -33.5t8.5 -41zM286 747q0 15 -10 25.5t-26 10.5q-15 0 -25.5 -10.5t-10.5 -25.5t10.5 -25.5t25.5 -10.5q16 0 26 10.5
t10 25.5z" />
    <glyph glyph-name="tilde.cap" 
d="M407 809q0 -30 -4.5 -57.5t-15 -48t-27 -32.5t-41.5 -12q-18 0 -33.5 5.5t-29.5 12t-26.5 12t-25.5 5.5q-24 0 -26 -31h-85q0 30 4.5 57t15 48t27 33t41.5 12q18 0 33.5 -5.5t29.5 -12t26.5 -12t25.5 -5.5q24 0 26 31h85z" />
    <glyph glyph-name="firsttonechinesecomb" 
d="M376 612v-108h-253v108h253z" />
    <glyph glyph-name="firsttonechinesecomb.cap" 
d="M376 612v-108h-253v108h253z" />
    </font>
</defs>
</svg>
