<?xml version="1.0" standalone="no"?>
<!DOCTYPE svg PUBLIC "-//W3C//DTD SVG 1.1//EN" "http://www.w3.org/Graphics/SVG/1.1/DTD/svg11.dtd" >
<svg xmlns="http://www.w3.org/2000/svg" xmlns:xlink="http://www.w3.org/1999/xlink" version="1.1">
<metadata>
Created by FontForge 20170731 at Mon May 16 19:16:27 2016
 By Aleksey,,,
Copyright (c) 2011 Klim Type Foundry. All rights reserved.
</metadata>
<defs>
<font id="KPNMetricApp-Regular" horiz-adv-x="500" >
  <font-face 
    font-family="KPN Metric App"
    font-weight="400"
    font-variant="small-caps"
    font-stretch="normal"
    units-per-em="1000"
    panose-1="2 11 5 4 2 1 1 1 1 2"
    ascent="750"
    descent="-250"
    x-height="444"
    cap-height="614"
    bbox="-275 -201 3363 894"
    underline-thickness="50"
    underline-position="-150"
    unicode-range="U+0020-FB02"
  />
<missing-glyph horiz-adv-x="219" 
d="M146 650v-734h-73v734h73z" />
    <glyph glyph-name="fi" unicode="fi" horiz-adv-x="498" 
d="M289 581q-11 7 -23 9.5t-24 2.5q-33 0 -53 -20.5t-20 -60.5v-68h100v-64h-100v-380h-74v380h-75v64h75v74q0 67 38.5 104t97.5 37q34 0 58 -10v-68zM356 0v444h75v-444h-75zM441 578q0 -20 -14 -34t-34 -14t-34 14t-14 34t14 34t34 14t34 -14t14 -34z" />
    <glyph glyph-name="fl" unicode="fl" horiz-adv-x="498" 
d="M289 581q-11 7 -23 9.5t-24 2.5q-33 0 -53 -20.5t-20 -60.5v-68h100v-64h-100v-380h-74v380h-75v64h75v74q0 67 38.5 104t97.5 37q34 0 58 -10v-68zM356 0v650h75v-650h-75z" />
    <glyph glyph-name="f_f" unicode="ff" horiz-adv-x="550" 
d="M550 581q-11 7 -23 9.5t-25 2.5q-32 0 -52 -20.5t-20 -60.5v-68h100v-64h-100v-380h-75v380h-186v-380h-74v380h-75v64h75v68q0 67 38.5 104t97.5 37q34 0 58 -10v-68q-11 7 -23 9.5t-24 2.5q-33 0 -53 -20.5t-20 -60.5v-62h186v74q0 67 38.5 104t97.5 37q35 0 59 -10
v-68z" />
    <glyph glyph-name=".notdef" horiz-adv-x="219" 
d="M146 650v-734h-73v734h73z" />
    <glyph glyph-name=".null" horiz-adv-x="0" 
 />
    <glyph glyph-name="nonmarkingreturn" horiz-adv-x="221" 
 />
    <glyph glyph-name="space" unicode=" " horiz-adv-x="221" 
 />
    <glyph glyph-name="exclam" unicode="!" horiz-adv-x="203" 
d="M48 49q0 23 15.5 39t37.5 16q23 0 38.5 -16t15.5 -39t-15.5 -38.5t-38.5 -15.5q-22 0 -37.5 15.5t-15.5 38.5zM146 614l-18 -421h-54l-17 421h89z" />
    <glyph glyph-name="quotedbl" unicode="&#x22;" horiz-adv-x="265" 
d="M106 614v-219h-66v219h66zM225 614v-219h-66v219h66z" />
    <glyph glyph-name="numbersign" unicode="#" horiz-adv-x="576" 
d="M395 176l-42 -176h-68l42 176h-141l-42 -176h-67l42 176h-96l13 59h97l34 144h-102l12 59h104l42 176h68l-43 -176h141l43 176h67l-42 -176h95l-12 -59h-97l-34 -144h102l-12 -59h-104zM341 235l34 144h-141l-34 -144h141z" />
    <glyph glyph-name="dollar" unicode="$" horiz-adv-x="458" 
d="M194 9q-48 4 -87 18.5t-65 34.5v82q40 -35 86 -51t96 -16q56 0 89.5 22t33.5 67q0 38 -23 58t-68 39l-85 33q-26 10 -50 23t-42 31t-28.5 43t-10.5 60q0 34 12 60.5t32.5 45t48.5 30t61 15.5v91h69v-91q75 -9 130 -46v-80q-35 28 -75 44t-91 16q-48 0 -81 -20.5
t-33 -63.5q0 -37 23 -55.5t64 -33.5l92 -36q66 -26 97 -64t31 -98q0 -66 -44 -106.5t-113 -49.5v-100h-69v98z" />
    <glyph glyph-name="percent" unicode="%" horiz-adv-x="642" 
d="M92 490q0 -31 21.5 -52.5t52.5 -21.5t53 21.5t22 52.5t-22 53t-53 22t-52.5 -22t-21.5 -53zM544 614l-383 -614h-62l383 614h62zM609 124q0 -28 -10.5 -52t-28.5 -42t-42 -28.5t-52 -10.5t-52 10.5t-42 28.5t-28.5 42t-10.5 52t10.5 52t28.5 42t42 28.5t52 10.5t52 -10.5
t42 -28.5t28.5 -42t10.5 -52zM299 490q0 -28 -10.5 -52t-28.5 -42t-42 -28.5t-52 -10.5t-52 10.5t-42 28.5t-28.5 42t-10.5 52t10.5 52t28.5 42t42 28.5t52 10.5t52 -10.5t42 -28.5t28.5 -42t10.5 -52zM550 124q0 31 -21.5 52.5t-52.5 21.5t-53 -21.5t-22 -52.5t22 -53
t53 -22t52.5 22t21.5 53z" />
    <glyph glyph-name="ampersand" unicode="&#x26;" horiz-adv-x="588" 
d="M270 559q-40 0 -67.5 -22.5t-27.5 -66.5q0 -34 20 -60t46 -55l172 -183q26 60 29 136h70q-2 -51 -15 -98t-38 -88l115 -122h-99l-61 64q-34 -34 -78 -53.5t-98 -19.5q-44 0 -80.5 14t-63 39t-41 59.5t-14.5 75.5q0 56 31.5 100.5t80.5 67.5q-23 28 -36 56t-13 65
q0 36 13 64.5t35.5 49t53 31t66.5 10.5q38 0 71 -10t61 -29v-78q-29 23 -60.5 38t-71.5 15zM238 54q42 0 75.5 14.5t58.5 40.5l-179 191q-36 -14 -59 -46.5t-23 -74.5q0 -55 35 -90t92 -35z" />
    <glyph glyph-name="quotesingle" unicode="'" horiz-adv-x="148" 
d="M108 614v-219h-68v219h68z" />
    <glyph glyph-name="parenleft" unicode="(" horiz-adv-x="321" 
d="M30 283q0 69 19 128.5t53.5 107.5t84 81.5t111.5 49.5v-80q-40 -10 -75 -34.5t-61.5 -61.5t-41.5 -85t-15 -106t15 -106t41.5 -85t61.5 -61.5t75 -34.5v-80q-62 16 -111.5 49.5t-84 81.5t-53.5 107.5t-19 128.5z" />
    <glyph glyph-name="parenright" unicode=")" horiz-adv-x="321" 
d="M291 283q0 -69 -19 -128.5t-53.5 -107.5t-84.5 -81.5t-111 -49.5v80q40 10 75 34.5t61.5 61.5t41.5 85t15 106t-15 106t-41.5 85t-61.5 61.5t-75 34.5v80q61 -16 111 -49.5t84.5 -81.5t53.5 -107.5t19 -128.5z" />
    <glyph glyph-name="asterisk" unicode="*" horiz-adv-x="332" 
d="M53 597l91 -52v104h44v-104l91 52l22 -38l-91 -53l91 -52l-22 -38l-91 52v-105h-44v105l-91 -52l-22 38l90 52l-90 53z" />
    <glyph glyph-name="plus" unicode="+" horiz-adv-x="540" 
d="M301 328h166v-62h-166v-166h-62v166h-166v62h166v166h62v-166z" />
    <glyph glyph-name="comma" unicode="," horiz-adv-x="171" 
d="M76 -1q-19 3 -31.5 15.5t-12.5 34.5q0 23 15.5 38t38.5 15t38 -15t15 -43q0 -16 -6.5 -32.5t-15.5 -30.5l-53 -88h-51z" />
    <glyph glyph-name="hyphen" unicode="-" horiz-adv-x="321" 
d="M281 296v-70h-241v70h241z" />
    <glyph glyph-name="period" unicode="." horiz-adv-x="171" 
d="M32 49q0 23 15.5 39t38.5 16q22 0 37.5 -16t15.5 -39t-15.5 -38.5t-37.5 -15.5q-23 0 -38.5 15.5t-15.5 38.5z" />
    <glyph glyph-name="slash" unicode="/" horiz-adv-x="333" 
d="M328 650l-248 -734h-75l248 734h75z" />
    <glyph glyph-name="zero" unicode="0" horiz-adv-x="532" 
d="M266 -9q-51 0 -93.5 23t-72.5 65t-46.5 100t-16.5 128t16.5 128t46.5 100t72.5 65t93.5 23t93.5 -23t72.5 -65t46.5 -100t16.5 -128t-16.5 -128t-46.5 -100t-72.5 -65t-93.5 -23zM266 552q-38 0 -66 -18t-47.5 -50.5t-29 -77.5t-9.5 -99t9.5 -99t29 -77.5t47.5 -50.5
t66 -18q37 0 65.5 18t47.5 50.5t29 77.5t10 99t-10 99t-29 77.5t-47.5 50.5t-65.5 18z" />
    <glyph glyph-name="one" unicode="1" horiz-adv-x="319" 
d="M172 0v520l-152 -78v80l182 93h47v-615h-77z" />
    <glyph glyph-name="two" unicode="2" horiz-adv-x="438" 
d="M409 0h-392v4l188 231q24 28 44.5 54t36 51.5t24.5 51.5t9 55q0 47 -28.5 76.5t-84.5 29.5q-54 0 -98.5 -26t-76.5 -59v80q31 32 78.5 53.5t102.5 21.5q85 0 134 -46.5t49 -126.5q0 -33 -10 -63.5t-27.5 -60.5t-40.5 -60t-48 -61l-113 -135h253v-70z" />
    <glyph glyph-name="three" unicode="3" horiz-adv-x="429" 
d="M392 614v-3l-154 -244q34 -5 63 -19.5t50.5 -38t33.5 -54.5t12 -68q0 -45 -16.5 -81.5t-44.5 -62t-65 -39t-79 -13.5q-59 0 -98.5 14t-68.5 37v83q33 -32 75 -49t87 -17q60 0 99 32.5t39 94.5q0 34 -14.5 59.5t-40 42.5t-60.5 24.5t-75 6.5v3l141 222h-247v70h363z" />
    <glyph glyph-name="four" unicode="4" horiz-adv-x="496" 
d="M301 205v148h73v-148h102v-66h-102v-139h-73v139h-265v56l193 419h77l-187 -409h182z" />
    <glyph glyph-name="five" unicode="5" horiz-adv-x="438" 
d="M192 385q45 0 84.5 -13t68.5 -38.5t46 -62t17 -82.5q0 -47 -17 -83.5t-46.5 -62t-70 -39t-86.5 -13.5q-52 0 -90.5 13t-67.5 36v85q33 -32 71.5 -49t83.5 -17q31 0 58 9t47.5 25.5t32.5 40.5t12 55q0 30 -12 54t-32.5 40.5t-48 25.5t-58.5 9q-42 0 -70.5 -8t-59.5 -21
v325h322v-70h-257v-169q14 5 32.5 7.5t40.5 2.5z" />
    <glyph glyph-name="six" unicode="6" horiz-adv-x="474" 
d="M237 -9q-45 0 -83 16t-66 44t-43.5 66t-15.5 83q0 38 12 77.5t42 92.5l140 244h81l-129 -224q12 8 30.5 13t36.5 5q44 0 81.5 -16t64.5 -44t42 -66t15 -82q0 -45 -16 -83t-43.5 -66t-65.5 -44t-83 -16zM373 200q0 30 -10.5 55.5t-28.5 44.5t-43 30t-54 11t-54 -11
t-43 -30t-28.5 -44.5t-10.5 -55.5t10.5 -56t28.5 -44.5t43 -29.5t54 -11t54 11t43 29.5t28.5 44.5t10.5 56z" />
    <glyph glyph-name="seven" unicode="7" horiz-adv-x="426" 
d="M65 0l250 544h-306v70h414v-3l-279 -611h-79z" />
    <glyph glyph-name="eight" unicode="8" horiz-adv-x="487" 
d="M243 55q59 0 96.5 32.5t37.5 85.5q0 52 -37.5 84.5t-96.5 32.5q-58 0 -95.5 -32.5t-37.5 -84.5q0 -53 37.5 -85.5t95.5 -32.5zM243 356q48 0 80.5 28t32.5 73q0 46 -32.5 74t-80.5 28t-80 -28t-32 -74q0 -23 8.5 -41.5t23.5 -31.5t35.5 -20.5t44.5 -7.5zM243 -9
q-44 0 -82.5 12.5t-66.5 35.5t-44 55.5t-16 72.5q0 60 34.5 101t85.5 55q-43 15 -70.5 51t-27.5 87q0 37 14.5 67t40 51t59.5 32.5t73 11.5t73.5 -11.5t60 -32.5t40 -51t14.5 -67q0 -51 -28 -87t-70 -51q25 -7 47 -21t38 -34t25.5 -45.5t9.5 -55.5q0 -40 -16 -72.5
t-44.5 -55.5t-66.5 -35.5t-83 -12.5z" />
    <glyph glyph-name="nine" unicode="9" horiz-adv-x="474" 
d="M237 623q45 0 83 -16t66 -44t43.5 -66t15.5 -83q0 -38 -12 -77.5t-42 -92.5l-140 -244h-81l129 224q-12 -8 -30.5 -13t-36.5 -5q-44 0 -81.5 16t-64.5 44t-42 66t-15 82q0 45 16 83t43.5 66t65.5 44t83 16zM101 414q0 -30 10.5 -55.5t28.5 -44.5t43 -30t54 -11t54 11
t43 30t28.5 44.5t10.5 55.5t-10.5 56t-28.5 44.5t-43 29.5t-54 11t-54 -11t-43 -29.5t-28.5 -44.5t-10.5 -56z" />
    <glyph glyph-name="colon" unicode=":" horiz-adv-x="171" 
d="M32 49q0 23 15.5 39t38.5 16q22 0 37.5 -16t15.5 -39t-15.5 -38.5t-37.5 -15.5q-23 0 -38.5 15.5t-15.5 38.5zM32 363q0 23 15.5 39t38.5 16q22 0 37.5 -16t15.5 -39t-15.5 -38.5t-37.5 -15.5q-23 0 -38.5 15.5t-15.5 38.5z" />
    <glyph glyph-name="semicolon" unicode=";" horiz-adv-x="171" 
d="M76 -1q-19 3 -31.5 15.5t-12.5 34.5q0 23 15.5 38t38.5 15t38 -15t15 -43q0 -16 -6.5 -32.5t-15.5 -30.5l-53 -88h-51zM32 363q0 23 15.5 39t38.5 16q22 0 37.5 -16t15.5 -39t-15.5 -38.5t-37.5 -15.5q-23 0 -38.5 15.5t-15.5 38.5z" />
    <glyph glyph-name="less" unicode="&#x3c;" horiz-adv-x="423" 
d="M358 485v-71l-238 -119l238 -119v-71l-296 151v78z" />
    <glyph glyph-name="equal" unicode="=" horiz-adv-x="551" 
d="M473 257v-58h-394v58h394zM473 397v-60h-394v60h394z" />
    <glyph glyph-name="greater" unicode="&#x3e;" horiz-adv-x="423" 
d="M65 105v71l238 119l-238 119v71l297 -151v-78z" />
    <glyph glyph-name="question" unicode="?" horiz-adv-x="414" 
d="M224 313q13 15 28 30t27.5 31.5t21 35.5t8.5 41q0 47 -28 73.5t-83 26.5t-100 -27t-77 -62v82q31 33 78.5 56t102.5 23q86 0 135 -45.5t49 -125.5q0 -28 -9.5 -52t-24.5 -45.5t-33 -41t-36 -38.5q-26 -27 -34 -45.5t-9 -36.5h-73q1 19 4.5 34t10 28.5t17 27t25.5 30.5z
M147 49q0 23 15.5 39t37.5 16q23 0 38.5 -16t15.5 -39t-15.5 -38.5t-38.5 -15.5q-22 0 -37.5 15.5t-15.5 38.5z" />
    <glyph glyph-name="at" unicode="@" horiz-adv-x="774" 
d="M517 138q-1 -5 -1.5 -9t-0.5 -8q0 -20 11 -28.5t31 -8.5q54 0 89.5 48.5t35.5 138.5q0 54 -20.5 98.5t-56.5 75.5t-85.5 48t-108.5 17q-71 0 -129 -24.5t-100 -67.5t-65 -102t-23 -128q0 -80 28.5 -134.5t74 -88.5t102.5 -48.5t113 -14.5q67 0 120.5 13t96.5 33v-57
q-38 -18 -94.5 -31.5t-122.5 -13.5q-73 0 -141.5 19.5t-121.5 61.5t-85 106.5t-32 154.5q0 78 27.5 147t77 120.5t119.5 81t155 29.5q74 0 135 -22.5t104.5 -62t67.5 -93.5t24 -117q0 -61 -16.5 -106.5t-44 -75.5t-62.5 -44.5t-72 -14.5q-35 0 -62 15t-38 43
q-15 -25 -43.5 -41t-58.5 -16q-32 0 -56.5 11.5t-41 31.5t-25.5 47t-9 58q0 41 13 79t37 67.5t57.5 47t74.5 17.5q34 0 57 -14.5t34 -31.5l7 37h67zM473 275q-8 23 -27.5 38t-46.5 15t-48.5 -12.5t-37 -33.5t-23.5 -47t-8 -53q0 -40 20.5 -64.5t56.5 -24.5q31 0 53 17t38 41
z" />
    <glyph glyph-name="A" unicode="A" horiz-adv-x="596" 
d="M575 0h-80l-71 185h-253l-70 -185h-80l240 614h74zM397 254l-100 262l-100 -262h200z" />
    <glyph glyph-name="B" unicode="B" horiz-adv-x="538" 
d="M388 318q50 -13 80.5 -53t30.5 -92q0 -85 -54.5 -129t-149.5 -44h-222v614h202q96 0 149.5 -41.5t53.5 -121.5q0 -55 -27 -88.5t-63 -44.5zM275 347q62 0 94.5 24.5t32.5 75.5t-32.5 74.5t-94.5 23.5h-125v-198h125zM295 69q63 0 95 29t32 77q0 49 -32 77.5t-95 28.5
h-145v-212h145z" />
    <glyph glyph-name="C" unicode="C" horiz-adv-x="540" 
d="M37 307q0 72 22 130.5t60.5 99.5t91 63.5t114.5 22.5q54 0 94.5 -14t70.5 -39v-83q-38 35 -77 50t-87 15q-47 0 -85.5 -17.5t-66 -49.5t-43 -77.5t-15.5 -100.5q0 -56 15.5 -101t43 -77t66 -49.5t85.5 -17.5q48 0 87 15.5t77 49.5v-83q-30 -25 -70.5 -39t-94.5 -14
q-62 0 -114.5 22.5t-91 63.5t-60.5 99.5t-22 130.5z" />
    <glyph glyph-name="D" unicode="D" horiz-adv-x="605" 
d="M269 71q52 0 93 16.5t69.5 47.5t43.5 74.5t15 97.5t-15 98t-43.5 74.5t-69.5 47.5t-93 17h-117v-473h117zM270 614q67 0 122 -21.5t94 -61.5t60.5 -97t21.5 -127t-21.5 -127t-60.5 -97t-94 -61.5t-122 -21.5h-197v614h197z" />
    <glyph glyph-name="E" unicode="E" horiz-adv-x="515" 
d="M464 544h-313v-194h284v-70h-284v-209h313v-71h-391v614h391v-70z" />
    <glyph glyph-name="F" unicode="F" horiz-adv-x="485" 
d="M73 614h375v-70h-296v-207h278v-70h-278v-267h-79v614z" />
    <glyph glyph-name="G" unicode="G" horiz-adv-x="593" 
d="M326 61q42 0 76.5 11t64.5 36v145h-135v66h208v-240q-45 -49 -102 -68.5t-114 -19.5q-64 0 -117 22.5t-90.5 64t-58.5 100t-21 129.5q0 72 22.5 130t62 99.5t94 64t117.5 22.5q54 0 99.5 -14.5t77.5 -40.5v-84q-39 35 -82.5 51.5t-94.5 16.5q-48 0 -88 -17.5t-68.5 -49.5
t-44.5 -77.5t-16 -100.5q0 -56 15 -101t42 -77.5t66 -50t87 -17.5z" />
    <glyph glyph-name="H" unicode="H" horiz-adv-x="651" 
d="M578 0h-79v280h-347v-280h-79v614h79v-263h347v263h79v-614z" />
    <glyph glyph-name="I" unicode="I" horiz-adv-x="225" 
d="M73 0v614h79v-614h-79z" />
    <glyph glyph-name="J" unicode="J" horiz-adv-x="391" 
d="M29 107q29 -21 56.5 -32.5t61.5 -11.5q55 0 79.5 33.5t24.5 110.5v407h79v-410q0 -112 -46 -162.5t-135 -50.5q-38 0 -69 11t-51 24v81z" />
    <glyph glyph-name="K" unicode="K" horiz-adv-x="553" 
d="M429 614h99l-302 -294l311 -320h-102l-283 289v-289h-79v614h79v-273z" />
    <glyph glyph-name="L" unicode="L" horiz-adv-x="504" 
d="M152 614v-543h313v-71h-392v614h79z" />
    <glyph glyph-name="M" unicode="M" horiz-adv-x="723" 
d="M150 472v-472h-77v614h73l218 -353l217 353h69v-614h-77v472l-208 -335h-4z" />
    <glyph glyph-name="N" unicode="N" horiz-adv-x="623" 
d="M492 0l-343 488v-488h-76v614h75l327 -467v467h75v-614h-58z" />
    <glyph glyph-name="O" unicode="O" horiz-adv-x="629" 
d="M592 307q0 -69 -20.5 -127t-57.5 -100t-88 -65.5t-112 -23.5q-60 0 -111 23.5t-88 65.5t-57.5 100t-20.5 127q0 70 20.5 128t57.5 100t88 65t111 23q61 0 112 -23t88 -65t57.5 -100t20.5 -128zM513 307q0 54 -14.5 99t-40.5 77.5t-62.5 50.5t-81.5 18q-44 0 -80.5 -18
t-62.5 -50.5t-40.5 -77.5t-14.5 -99t14.5 -99t40.5 -77.5t62.5 -50.5t80.5 -18q45 0 81.5 18t62.5 50.5t40.5 77.5t14.5 99z" />
    <glyph glyph-name="P" unicode="P" horiz-adv-x="537" 
d="M152 0h-79v614h227q93 0 149 -46.5t56 -137.5q0 -90 -56 -137t-149 -47h-148v-246zM427 430q0 53 -32.5 84t-95.5 31h-147v-229h147q63 0 95.5 31t32.5 83z" />
    <glyph glyph-name="Q" unicode="Q" horiz-adv-x="628" 
d="M450 27q-30 -17 -64 -26.5t-72 -9.5q-60 0 -111 23.5t-88 65.5t-57.5 100t-20.5 127q0 70 20.5 128t57.5 100t88 65t111 23q61 0 112 -23t88 -65t57.5 -100t20.5 -128q0 -75 -23.5 -135.5t-65.5 -102.5l51 -64l-54 -41zM513 307q0 54 -14.5 99t-40.5 77.5t-62.5 50.5
t-81.5 18q-44 0 -80.5 -18t-62.5 -50.5t-40.5 -77.5t-14.5 -99t14.5 -99t40.5 -77.5t62.5 -50.5t80.5 -18q53 0 92 21l-52 66l54 40l50 -64q26 32 40.5 77t14.5 105z" />
    <glyph glyph-name="R" unicode="R" horiz-adv-x="552" 
d="M152 0h-79v614h225q93 0 148.5 -45.5t55.5 -132.5q0 -77 -42 -119.5t-115 -53.5l182 -263h-90l-176 260h-109v-260zM296 327q61 0 94.5 29t33.5 80t-33.5 80t-94.5 29h-144v-218h144z" />
    <glyph glyph-name="S" unicode="S" horiz-adv-x="481" 
d="M41 133q84 -72 193 -72q60 0 95.5 24.5t35.5 72.5q0 40 -24.5 61.5t-73.5 41.5l-90 35q-27 10 -52 24t-44 33.5t-30.5 46t-11.5 62.5q0 40 16 70t43 50t62.5 30.5t75.5 10.5q51 0 96 -13t80 -37v-83q-37 29 -79 46.5t-96 17.5q-51 0 -86 -22.5t-35 -68.5q0 -39 24.5 -59
t67.5 -37l97 -38q71 -27 103.5 -66.5t32.5 -103.5q0 -39 -15.5 -70.5t-43.5 -53t-65.5 -33t-82.5 -11.5q-63 0 -112 16t-81 41v85z" />
    <glyph glyph-name="T" unicode="T" horiz-adv-x="567" 
d="M537 614v-70h-214v-544h-79v544h-214v70h507z" />
    <glyph glyph-name="U" unicode="U" horiz-adv-x="607" 
d="M303 -9q-52 0 -96 16t-76 47.5t-50 79t-18 110.5v370h78v-361q0 -99 43.5 -145.5t118.5 -46.5t118.5 46.5t43.5 145.5v361h79v-371q0 -63 -18 -110.5t-50 -79t-76.5 -47t-96.5 -15.5z" />
    <glyph glyph-name="V" unicode="V" horiz-adv-x="590" 
d="M21 614h83l192 -510l193 510h80l-237 -614h-74z" />
    <glyph glyph-name="W" unicode="W" horiz-adv-x="767" 
d="M546 126l126 488h76l-163 -614h-72l-129 479l-131 -479h-71l-163 614h78l126 -488l130 488h63z" />
    <glyph glyph-name="X" unicode="X" horiz-adv-x="557" 
d="M541 0h-90l-174 250l-173 -250h-87l217 312l-209 302h90l164 -239l166 239h87l-209 -300z" />
    <glyph glyph-name="Y" unicode="Y" horiz-adv-x="557" 
d="M541 614l-224 -361v-253h-78v253l-222 361h86l177 -290l177 290h84z" />
    <glyph glyph-name="Z" unicode="Z" horiz-adv-x="529" 
d="M30 0v4l341 540h-326v70h450v-4l-339 -539h336v-71h-462z" />
    <glyph glyph-name="bracketleft" unicode="[" horiz-adv-x="313" 
d="M290 -16v-68h-217v734h217v-68h-145v-598h145z" />
    <glyph glyph-name="backslash" unicode="\" horiz-adv-x="333" 
d="M253 -84l-248 734h75l248 -734h-75z" />
    <glyph glyph-name="bracketright" unicode="]" horiz-adv-x="313" 
d="M23 582v68h217v-734h-217v68h145v598h-145z" />
    <glyph glyph-name="asciicircum" unicode="^" horiz-adv-x="357" 
d="M340 420h-78l-83 128l-83 -128h-79l125 194h74z" />
    <glyph glyph-name="underscore" unicode="_" horiz-adv-x="367" 
d="M347 -42v-68h-327v68h327z" />
    <glyph glyph-name="grave" unicode="`" 
d="M171 650h78l80 -134h-69z" />
    <glyph glyph-name="a" unicode="a" horiz-adv-x="448" 
d="M314 295q0 42 -28.5 65.5t-77.5 23.5q-37 0 -67.5 -10.5t-58.5 -28.5v71q23 16 59.5 26.5t78.5 10.5q79 0 123 -40.5t44 -111.5v-301h-73v33q-13 -14 -44.5 -27.5t-70.5 -13.5q-34 0 -64 10t-52.5 28t-35.5 44.5t-13 59.5q0 31 13 56.5t36 44t53.5 28.5t66.5 10
q35 0 66 -11.5t45 -24.5v58zM314 156q-9 25 -38.5 40t-64.5 15q-20 0 -39 -4.5t-34 -14t-24 -24t-9 -34.5t9 -35t24 -25t34 -14.5t39 -4.5q35 0 64.5 15t38.5 40v46z" />
    <glyph glyph-name="b" unicode="b" horiz-adv-x="502" 
d="M66 0v650h76v-258q17 24 50 42.5t75 18.5q49 0 86 -18.5t62.5 -50t38.5 -73.5t13 -89t-13 -89t-38.5 -73.5t-62.5 -50t-86 -18.5q-42 0 -75 18.5t-50 42.5v-52h-76zM142 132q17 -35 48 -54t66 -19q32 0 57 12t42.5 34t26.5 52t9 65t-9 65t-26.5 51.5t-42.5 34t-57 12.5
q-35 0 -66 -19t-48 -54v-180z" />
    <glyph glyph-name="c" unicode="c" horiz-adv-x="405" 
d="M35 222q0 53 16.5 96t45.5 73t68 46t84 16q32 0 64 -8.5t55 -28.5v-76q-24 24 -53 35t-61 11q-30 0 -56 -11.5t-45.5 -32.5t-30.5 -51.5t-11 -68.5t11 -68.5t30.5 -51.5t45.5 -32.5t56 -11.5q32 0 61 11t53 35v-76q-23 -20 -55 -28.5t-64 -8.5q-45 0 -84 16t-68 46
t-45.5 73t-16.5 96z" />
    <glyph glyph-name="d" unicode="d" horiz-adv-x="502" 
d="M360 52q-17 -24 -50 -42.5t-75 -18.5q-49 0 -86 18.5t-62.5 50t-38.5 73.5t-13 89t13 89t38.5 73.5t62.5 50t86 18.5q42 0 75 -18.5t50 -42.5v258h76v-650h-76v52zM360 312q-17 35 -48 54t-66 19q-32 0 -57 -12.5t-42.5 -34t-26.5 -51.5t-9 -65t9 -65t26.5 -52t42.5 -34
t57 -12q35 0 66 19t48 54v180z" />
    <glyph glyph-name="e" unicode="e" horiz-adv-x="450" 
d="M109 209q1 -39 13 -67.5t32 -47t47 -28t57 -9.5q38 0 67 9.5t59 32.5v-69q-27 -21 -61 -30t-74 -9q-48 0 -87.5 16t-67.5 45t-43.5 71t-15.5 95q0 52 14.5 95t40.5 74t62.5 48.5t80.5 17.5q45 0 79 -15.5t57 -44t34.5 -68.5t11.5 -89v-27h-306zM234 389
q-45 0 -77.5 -29.5t-43.5 -91.5h229q-1 24 -8 46t-20 38.5t-33 26.5t-47 10z" />
    <glyph glyph-name="f" unicode="f" horiz-adv-x="289" 
d="M289 581q-11 7 -23 9.5t-24 2.5q-33 0 -53 -20.5t-20 -60.5v-68h100v-64h-100v-380h-74v380h-75v64h75v74q0 67 38.5 104t97.5 37q34 0 58 -10v-68z" />
    <glyph glyph-name="g" unicode="g" horiz-adv-x="499" 
d="M357 59q-17 -23 -49.5 -41.5t-74.5 -18.5q-49 0 -86 18.5t-62 50t-37.5 72.5t-12.5 86t12.5 86t37.5 72.5t62 50t86 18.5q42 0 74.5 -18t49.5 -41v50h76v-409q0 -58 -19 -99t-50 -66.5t-69.5 -37.5t-78.5 -12q-43 0 -80 11t-63 29v83q33 -31 68.5 -43t74.5 -12
q30 0 55.5 9t44.5 26.5t30 44t11 62.5v29zM357 317q-17 32 -47 50.5t-66 18.5q-63 0 -98 -45t-35 -115q0 -69 35 -114t98 -45q36 0 66 18.5t47 50.5v181z" />
    <glyph glyph-name="h" unicode="h" horiz-adv-x="489" 
d="M142 650v-262q20 26 54 45.5t77 19.5q76 0 116 -44.5t40 -117.5v-291h-76v279q0 47 -23.5 76t-74.5 29q-39 0 -70 -23.5t-43 -59.5v-301h-75v650h75z" />
    <glyph glyph-name="i" unicode="i" horiz-adv-x="209" 
d="M67 0v444h75v-444h-75zM153 578q0 -20 -14 -34t-34 -14t-34 14t-14 34t14 34t34 14t34 -14t14 -34z" />
    <glyph glyph-name="j" unicode="j" horiz-adv-x="207" 
d="M142 -51q0 -63 -33 -95.5t-96 -32.5q-7 0 -16.5 1t-15.5 3v64q5 -1 12 -2t14 -1q29 0 44.5 15t15.5 53v490h75v-495zM153 578q0 -20 -14 -34t-34 -14t-34 14t-14 34t14 34t34 14t34 -14t14 -34z" />
    <glyph glyph-name="k" unicode="k" horiz-adv-x="445" 
d="M347 0l-205 220v-220h-75v650h75v-393l197 187h97l-218 -203l222 -241h-93z" />
    <glyph glyph-name="l" unicode="l" horiz-adv-x="209" 
d="M67 0v650h75v-650h-75z" />
    <glyph glyph-name="m" unicode="m" horiz-adv-x="717" 
d="M382 382q21 30 54.5 50.5t80.5 20.5q68 0 104 -43.5t36 -115.5v-294h-76v282q0 47 -20.5 75t-63.5 28q-34 0 -60.5 -21.5t-37.5 -57.5v-306h-75v282q0 47 -20.5 75t-63.5 28q-34 0 -60.5 -21.5t-37.5 -57.5v-306h-75v444h75v-52q17 26 47.5 43.5t72.5 17.5t73 -19.5
t47 -51.5z" />
    <glyph glyph-name="n" unicode="n" horiz-adv-x="489" 
d="M142 444v-56q20 26 54 45.5t77 19.5q76 0 116 -44.5t40 -117.5v-291h-76v279q0 47 -23.5 76t-74.5 29q-39 0 -70 -23.5t-43 -59.5v-301h-75v444h75z" />
    <glyph glyph-name="o" unicode="o" horiz-adv-x="478" 
d="M443 222q0 -51 -15 -93.5t-42 -73t-64.5 -47.5t-82.5 -17q-46 0 -83.5 17t-64.5 47.5t-41.5 73t-14.5 93.5t14.5 93.5t41.5 73t64.5 47.5t83.5 17q45 0 82.5 -17t64.5 -47.5t42 -73t15 -93.5zM367 222q0 73 -34 119t-94 46t-94 -46t-34 -119t34 -119t94 -46t94 46t34 119
z" />
    <glyph glyph-name="p" unicode="p" horiz-adv-x="502" 
d="M67 -170v614h75v-52q17 24 50 42.5t75 18.5q49 0 86.5 -19t62.5 -50.5t38 -73.5t13 -88t-13 -88t-38 -73.5t-62.5 -50.5t-86.5 -19q-42 0 -75 18.5t-50 42.5v-222h-75zM142 132q17 -35 48 -54t66 -19q32 0 57 12t42.5 34t26.5 52t9 65t-9 65t-26.5 51.5t-42.5 34
t-57 12.5q-35 0 -66 -19t-48 -54v-180z" />
    <glyph glyph-name="q" unicode="q" horiz-adv-x="502" 
d="M360 52q-17 -24 -50 -42.5t-75 -18.5q-49 0 -86.5 19t-62.5 50.5t-38 73.5t-13 88t13 88t38 73.5t62.5 50.5t86.5 19q42 0 75 -18.5t50 -42.5v52h75v-614h-75v222zM360 312q-17 35 -48 54t-66 19q-32 0 -57 -12.5t-42.5 -34t-26.5 -51.5t-9 -65t9 -65t26.5 -52t42.5 -34
t57 -12q35 0 66 19t48 54v180z" />
    <glyph glyph-name="r" unicode="r" horiz-adv-x="321" 
d="M295 369q-9 6 -22.5 9t-27.5 3q-35 0 -63.5 -22t-39.5 -61v-298h-75v444h75v-58q14 29 43.5 48t66.5 19q29 0 43 -7v-77z" />
    <glyph glyph-name="s" unicode="s" horiz-adv-x="393" 
d="M41 115q31 -29 68 -44.5t78 -15.5q37 0 64.5 14.5t27.5 47.5q0 25 -17.5 39.5t-46.5 24.5l-61 21q-51 17 -81.5 44.5t-30.5 81.5q0 29 12 52.5t33.5 39.5t50 24.5t61.5 8.5q76 0 132 -39v-78q-28 23 -59.5 38t-72.5 15q-35 0 -59.5 -14.5t-24.5 -43.5q0 -27 17 -39.5
t49 -23.5l68 -23q51 -17 77.5 -47t26.5 -78q0 -31 -13 -55t-35.5 -40.5t-52.5 -25t-65 -8.5q-44 0 -82.5 12t-63.5 32v80z" />
    <glyph glyph-name="t" unicode="t" horiz-adv-x="318" 
d="M116 0v380h-93v64h93v117h75v-117h103v-64h-103v-380h-75z" />
    <glyph glyph-name="u" unicode="u" horiz-adv-x="487" 
d="M345 0v56q-19 -26 -52.5 -45.5t-76.5 -19.5q-76 0 -115.5 44.5t-39.5 117.5v291h76v-279q0 -47 23 -76t74 -29q39 0 69 23.5t42 59.5v301h76v-444h-76z" />
    <glyph glyph-name="v" unicode="v" horiz-adv-x="455" 
d="M18 444h81l130 -349l129 349h79l-173 -444h-74z" />
    <glyph glyph-name="w" unicode="w" horiz-adv-x="629" 
d="M538 444h73l-131 -444h-73l-92 337l-93 -337h-73l-131 444h75l98 -339l91 339h67l91 -339z" />
    <glyph glyph-name="x" unicode="x" horiz-adv-x="449" 
d="M431 0h-85l-123 173l-124 -173h-81l164 227l-155 217h86l112 -159l115 159h82l-156 -214z" />
    <glyph glyph-name="y" unicode="y" horiz-adv-x="455" 
d="M191 -3l-173 447h81l131 -350l129 350h78l-239 -614h-74z" />
    <glyph glyph-name="z" unicode="z" horiz-adv-x="424" 
d="M31 0v4l239 376h-228v64h344v-4l-238 -376h237v-64h-354z" />
    <glyph glyph-name="braceleft" unicode="{" horiz-adv-x="339" 
d="M175 21q0 -37 36 -37h105v-68h-104q-49 0 -80 31t-31 81v183q0 37 -35 37h-46v70h46q35 0 35 37v183q0 50 31 81t80 31h104v-68h-105q-36 0 -36 -37v-185q0 -29 -12 -47.5t-31 -29.5q19 -11 31 -29.5t12 -47.5v-185z" />
    <glyph glyph-name="bar" unicode="|" horiz-adv-x="219" 
d="M146 650v-734h-73v734h73z" />
    <glyph glyph-name="braceright" unicode="}" horiz-adv-x="339" 
d="M164 206q0 29 12 47.5t31 29.5q-19 11 -31 29.5t-12 47.5v185q0 37 -36 37h-105v68h104q49 0 80 -31t31 -81v-183q0 -37 35 -37h46v-70h-46q-35 0 -35 -37v-183q0 -50 -31 -81t-80 -31h-104v68h105q36 0 36 37v185z" />
    <glyph glyph-name="asciitilde" unicode="~" horiz-adv-x="418" 
d="M378 335q0 -61 -25.5 -95t-71.5 -34q-23 0 -41 10.5t-34 22.5l-30 22.5t-30 10.5q-43 0 -43 -62h-63q0 60 25.5 94t71.5 34q23 0 41 -10.5t33.5 -22.5t30 -22.5t30.5 -10.5q20 0 31.5 16.5t11.5 46.5h63z" />
    <glyph glyph-name="uni00A0" unicode="&#xa0;" horiz-adv-x="221" 
 />
    <glyph glyph-name="exclamdown" unicode="&#xa1;" horiz-adv-x="209" 
d="M48 469q0 23 15.5 38.5t37.5 15.5q23 0 38.5 -15.5t15.5 -38.5t-15.5 -39t-38.5 -16q-22 0 -37.5 16t-15.5 39zM128 325l18 -421h-89l17 421h54z" />
    <glyph glyph-name="cent" unicode="&#xa2;" horiz-adv-x="405" 
d="M207 4q-37 7 -68.5 26t-54.5 48t-36 68t-13 86t13 85.5t36 68t54.5 48t68.5 25.5v89h68v-86q26 -3 50 -11.5t43 -24.5v-76q-24 24 -53 35t-61 11q-30 0 -56 -11.5t-45.5 -32.5t-30.5 -51.5t-11 -68.5t11 -68.5t30.5 -51.5t45.5 -32.5t56 -11.5q32 0 61 11t53 35v-76
q-19 -17 -43 -25.5t-50 -10.5v-89h-68v91z" />
    <glyph glyph-name="sterling" unicode="&#xa3;" horiz-adv-x="467" 
d="M114 334v75q0 49 14 88.5t40.5 67.5t64 43t84.5 15q32 0 61 -8t48 -21v-69q-21 14 -47.5 22.5t-61.5 8.5q-62 0 -96 -39.5t-34 -111.5v-71h154v-63h-154v-115q0 -26 -6 -51t-17 -40h277v-65h-410v65h61q10 17 16 37.5t6 53.5v115h-83v63h83z" />
    <glyph glyph-name="yen" unicode="&#xa5;" horiz-adv-x="535" 
d="M198 323l-173 291h84l160 -275l159 275h81l-173 -291h127v-59h-157v-70h157v-60h-157v-134h-78v134h-157v60h157v70h-157v59h127z" />
    <glyph glyph-name="section" unicode="&#xa7;" horiz-adv-x="457" 
d="M142 385q-23 -7 -35.5 -24.5t-12.5 -40.5q0 -27 20 -45t45 -35l156 -104q23 6 35.5 23.5t12.5 40.5q0 27 -20 45t-45 35zM95 433q-9 14 -14 30t-5 37q0 28 12 51t33 39t49.5 24.5t61.5 8.5q77 0 133 -39v-78q-28 23 -60.5 38t-72.5 15q-35 0 -58.5 -15t-23.5 -44
q0 -26 16 -42.5t45 -35.5l122 -81q21 -14 39 -28t32 -30.5t22 -36.5t8 -44q0 -37 -19 -67.5t-53 -47.5q9 -14 14 -30t5 -36q0 -29 -12 -51.5t-33 -39t-49.5 -25t-61.5 -8.5q-38 0 -72 10t-61 30v78q28 -23 60.5 -38.5t72.5 -15.5q35 0 58.5 15.5t23.5 44.5q0 26 -16 42
t-45 36l-122 81q-21 13 -39 27.5t-32 31t-22 36t-8 43.5q0 37 19 67.5t53 47.5z" />
    <glyph glyph-name="dieresis" unicode="&#xa8;" 
d="M133 571q0 20 13.5 33.5t33.5 13.5q19 0 32.5 -13.5t13.5 -33.5q0 -19 -13.5 -32.5t-32.5 -13.5q-20 0 -33.5 13.5t-13.5 32.5zM274 571q0 20 13 33.5t32 13.5q20 0 33.5 -13.5t13.5 -33.5q0 -19 -13.5 -32.5t-33.5 -13.5q-19 0 -32 13.5t-13 32.5z" />
    <glyph glyph-name="copyright" unicode="&#xa9;" horiz-adv-x="706" 
d="M669 307q0 -69 -25 -127t-68 -100t-100.5 -65.5t-122.5 -23.5t-122.5 23.5t-100.5 65.5t-68 100t-25 127t25 127t68 100t100.5 65.5t122.5 23.5t122.5 -23.5t100.5 -65.5t68 -100t25 -127zM630 307q0 60 -22 111t-59.5 88t-88 57.5t-107.5 20.5t-107.5 -20.5t-88 -57.5
t-59.5 -88t-22 -111t22 -111t59.5 -88t88 -57.5t107.5 -20.5t107.5 20.5t88 57.5t59.5 88t22 111zM173 309q0 45 14 82t39.5 63t60 40t76.5 14q32 0 57 -7.5t44 -20.5v-73q-43 34 -95 34q-54 0 -88 -36t-34 -96t34 -95.5t88 -35.5q53 0 95 33v-73q-19 -13 -44 -20.5
t-57 -7.5q-42 0 -76.5 14t-60 40t-39.5 63t-14 82z" />
    <glyph glyph-name="ordfeminine" unicode="&#xaa;" horiz-adv-x="291" 
d="M196 512q0 24 -18 38.5t-51 14.5q-23 0 -43.5 -7t-38.5 -18v60q17 10 42.5 17t54.5 7q57 0 88.5 -28.5t31.5 -79.5v-195h-66v21q-8 -9 -28.5 -17.5t-46.5 -8.5q-22 0 -42 6t-35 18t-23.5 29.5t-8.5 40.5q0 21 9 38.5t24 29.5t35.5 19t44.5 7q22 0 42 -7.5t29 -15.5v31z
M196 424q-5 14 -22 22.5t-38 8.5q-23 0 -41.5 -10.5t-18.5 -33.5t18.5 -34t41.5 -11q21 0 38 8.5t22 22.5v27z" />
    <glyph glyph-name="guillemotleft" unicode="&#xab;" horiz-adv-x="357" 
d="M25 222l92 148h70l-92 -148l92 -148h-70zM170 222l92 148h70l-92 -148l92 -148h-70z" />
    <glyph glyph-name="uni00AD" unicode="&#xad;" horiz-adv-x="321" 
d="M281 296v-70h-241v70h241z" />
    <glyph glyph-name="registered" unicode="&#xae;" horiz-adv-x="412" 
d="M387 440q0 -40 -14.5 -73.5t-39 -58t-57.5 -38t-70 -13.5t-70 13.5t-57.5 38t-39 58t-14.5 73.5t14.5 73.5t39 58t57.5 38t70 13.5t70 -13.5t57.5 -38t39 -58t14.5 -73.5zM356 440q0 34 -12 62t-32 48.5t-47.5 32t-58.5 11.5t-58.5 -11.5t-48 -32t-32.5 -48.5t-12 -62
q0 -33 12 -61.5t32.5 -48.5t48 -31.5t58.5 -11.5t58.5 11.5t47.5 31.5t32 48.5t12 61.5zM177 346h-42v192h84q32 0 50 -16.5t18 -46.5q0 -23 -11 -37.5t-31 -19.5l49 -72h-47l-45 68h-25v-68zM247 475q0 11 -8 19t-22 8h-40v-53h40q14 0 22 7.5t8 18.5z" />
    <glyph glyph-name="macron" unicode="&#xaf;" 
d="M356 591v-61h-213v61h213z" />
    <glyph glyph-name="degree" unicode="&#xb0;" horiz-adv-x="336" 
d="M100 499q0 -29 20 -48.5t48 -19.5t48 19.5t20 48.5t-20 49t-48 20t-48 -20t-20 -49zM291 499q0 -26 -9.5 -48.5t-26.5 -39.5t-39.5 -26.5t-47.5 -9.5q-26 0 -48 9.5t-39 26.5t-26.5 39.5t-9.5 48.5t9.5 48.5t26.5 39.5t39 26.5t48 9.5q25 0 47.5 -9.5t39.5 -26.5
t26.5 -39.5t9.5 -48.5z" />
    <glyph glyph-name="plusminus" unicode="&#xb1;" horiz-adv-x="544" 
d="M303 389h164v-62h-164v-129h-62v129h-163v62h163v129h62v-129zM467 150v-62h-389v62h389z" />
    <glyph glyph-name="twosuperior" unicode="&#xb2;" horiz-adv-x="274" 
d="M249 282h-229v2l100 127q25 31 41 54t16 49q0 21 -14 34.5t-40 13.5t-51.5 -15t-42.5 -31v64q18 17 46 28t61 11q48 0 75.5 -26t27.5 -70q0 -34 -18.5 -63.5t-43.5 -61.5l-48 -61h120v-55z" />
    <glyph glyph-name="threesuperior" unicode="&#xb3;" horiz-adv-x="263" 
d="M237 614v-2l-75 -130q34 -9 55.5 -33.5t21.5 -62.5q0 -26 -9.5 -46t-25.5 -34t-37.5 -21.5t-45.5 -7.5q-33 0 -55.5 7.5t-39.5 19.5v62q19 -17 42 -26t47 -9q29 0 46.5 14t17.5 41q0 32 -27.5 46.5t-66.5 12.5v2l66 111h-123v56h209z" />
    <glyph glyph-name="acute" unicode="&#xb4;" 
d="M251 650h78l-89 -134h-69z" />
    <glyph glyph-name="paragraph" unicode="&#xb6;" horiz-adv-x="489" 
d="M416 614v-704h-63v704h63zM220 301q-37 0 -73.5 9t-66 28t-47.5 49t-18 71t18 70.5t47.5 48.5t66 28t73.5 9h63v-704h-63v391z" />
    <glyph glyph-name="periodcentered" unicode="&#xb7;" horiz-adv-x="176" 
d="M34 262q0 23 15.5 39t38.5 16q22 0 37.5 -16t15.5 -39t-15.5 -38.5t-37.5 -15.5q-23 0 -38.5 15.5t-15.5 38.5z" />
    <glyph glyph-name="cedilla" unicode="&#xb8;" 
d="M245 -51h74l-69 -132h-71z" />
    <glyph glyph-name="onesuperior" unicode="&#xb9;" horiz-adv-x="216" 
d="M105 282v259l-88 -44v64l108 54h43v-333h-63z" />
    <glyph glyph-name="ordmasculine" unicode="&#xba;" horiz-adv-x="310" 
d="M296 469q0 -34 -10 -62.5t-29 -49t-45 -32t-57 -11.5q-32 0 -58 11.5t-44.5 32t-29 49t-10.5 62.5t10.5 62.5t29 49t44.5 32t58 11.5q31 0 57 -11.5t45 -32t29 -49t10 -62.5zM228 469q0 43 -19.5 70t-53.5 27t-53.5 -27t-19.5 -70t19.5 -69.5t53.5 -26.5t53.5 26.5
t19.5 69.5z" />
    <glyph glyph-name="guillemotright" unicode="&#xbb;" horiz-adv-x="357" 
d="M262 222l-92 148h70l92 -148l-92 -148h-70zM117 222l-92 148h70l92 -148l-92 -148h-70z" />
    <glyph glyph-name="onequarter" unicode="&#xbc;" horiz-adv-x="604" 
d="M488 123v67h56v-67h47v-53h-47v-70h-56v70h-164v2l120 260h63l-96 -209h77zM105 282v259l-88 -44v64l108 54h43v-333h-63zM53 0l429 614h67l-429 -614h-67z" />
    <glyph glyph-name="onehalf" unicode="&#xbd;" horiz-adv-x="632" 
d="M607 0h-229v2l100 127q25 31 41 54t16 49q0 21 -14 34.5t-40 13.5t-51.5 -15t-42.5 -31v64q18 17 46 28t61 11q48 0 75.5 -26t27.5 -70q0 -34 -18.5 -63.5t-43.5 -61.5l-48 -61h120v-55zM105 282v259l-88 -44v64l108 54h43v-333h-63zM53 0l429 614h67l-429 -614h-67z" />
    <glyph glyph-name="threequarters" unicode="&#xbe;" horiz-adv-x="625" 
d="M509 123v67h56v-67h47v-53h-47v-70h-56v70h-164v2l120 260h63l-96 -209h77zM237 614v-2l-75 -130q34 -9 55.5 -33.5t21.5 -62.5q0 -26 -9.5 -46t-25.5 -34t-37.5 -21.5t-45.5 -7.5q-33 0 -55.5 7.5t-39.5 19.5v62q19 -17 42 -26t47 -9q29 0 46.5 14t17.5 41
q0 32 -27.5 46.5t-66.5 12.5v2l66 111h-123v56h209zM73 0l429 614h67l-429 -614h-67z" />
    <glyph glyph-name="questiondown" unicode="&#xbf;" horiz-adv-x="414" 
d="M190 205q-13 -15 -28 -30t-27.5 -31.5t-21 -35.5t-8.5 -41q0 -47 28 -73.5t83 -26.5t100 27t77 62v-82q-31 -33 -78.5 -56t-102.5 -23q-86 0 -135 45.5t-49 125.5q0 28 9.5 52t24.5 45.5t33 41t36 38.5q26 27 34 45.5t9 36.5h73q-1 -19 -4.5 -34t-10 -28.5t-17 -27.5
t-25.5 -30zM267 469q0 -23 -15.5 -39t-37.5 -16q-23 0 -38.5 16t-15.5 39t15.5 38.5t38.5 15.5q22 0 37.5 -15.5t15.5 -38.5z" />
    <glyph glyph-name="Agrave" unicode="&#xc0;" horiz-adv-x="596" 
d="M575 0h-80l-71 185h-253l-70 -185h-80l240 614h74zM397 254l-100 262l-100 -262h200zM170 785h87l80 -117h-75z" />
    <glyph glyph-name="Aacute" unicode="&#xc1;" horiz-adv-x="596" 
d="M575 0h-80l-71 185h-253l-70 -185h-80l240 614h74zM397 254l-100 262l-100 -262h200zM337 785h87l-91 -117h-76z" />
    <glyph glyph-name="Acircumflex" unicode="&#xc2;" horiz-adv-x="596" 
d="M575 0h-80l-71 185h-253l-70 -185h-80l240 614h74zM397 254l-100 262l-100 -262h200zM357 669l-59 71l-59 -71h-68l92 122h70l92 -122h-68z" />
    <glyph glyph-name="Atilde" unicode="&#xc3;" horiz-adv-x="596" 
d="M575 0h-80l-71 185h-253l-70 -185h-80l240 614h74zM397 254l-100 262l-100 -262h200zM432 784q0 -54 -19 -86.5t-57 -32.5q-18 0 -32.5 8.5t-27.5 19t-25 19.5t-25 9q-34 0 -34 -53h-49q0 54 19 86.5t57 32.5q19 0 33.5 -9t27 -19.5t24.5 -19t26 -8.5q32 0 34 53h48z" />
    <glyph glyph-name="Adieresis" unicode="&#xc4;" horiz-adv-x="596" 
d="M575 0h-80l-71 185h-253l-70 -185h-80l240 614h74zM397 254l-100 262l-100 -262h200zM182 722q0 20 13.5 33t33.5 13q19 0 32.5 -13t13.5 -33t-13.5 -33t-32.5 -13q-20 0 -33.5 13t-13.5 33zM323 722q0 20 13 33t32 13q20 0 33.5 -13t13.5 -33t-13.5 -33t-33.5 -13
q-19 0 -32 13t-13 33z" />
    <glyph glyph-name="Aring" unicode="&#xc5;" horiz-adv-x="596" 
d="M575 0h-80l-71 185h-253l-70 -185h-80l240 614h74zM397 254l-100 262l-100 -262h200zM385 734q0 -36 -25 -61t-62 -25t-62 25t-25 61q0 37 25 62t62 25t62 -25t25 -62zM343 734q0 20 -13 33t-32 13t-32 -13t-13 -33q0 -19 13 -32t32 -13t32 13t13 32z" />
    <glyph glyph-name="AE" unicode="&#xc6;" horiz-adv-x="862" 
d="M811 544h-297v-194h268v-70h-268v-209h297v-71h-374v185h-222l-112 -185h-82l369 614h421v-70zM437 254v296l-180 -296h180z" />
    <glyph glyph-name="Ccedilla" unicode="&#xc7;" horiz-adv-x="540" 
d="M37 307q0 72 22 130.5t60.5 99.5t91 63.5t114.5 22.5q54 0 94.5 -14t70.5 -39v-83q-38 35 -77 50t-87 15q-47 0 -85.5 -17.5t-66 -49.5t-43 -77.5t-15.5 -100.5q0 -56 15.5 -101t43 -77t66 -49.5t85.5 -17.5q48 0 87 15.5t77 49.5v-83q-30 -25 -70.5 -39t-94.5 -14
q-62 0 -114.5 22.5t-91 63.5t-60.5 99.5t-22 130.5zM290 -51h74l-69 -132h-71z" />
    <glyph glyph-name="Egrave" unicode="&#xc8;" horiz-adv-x="515" 
d="M464 544h-313v-194h284v-70h-284v-209h313v-71h-391v614h391v-70zM147 785h87l80 -117h-75z" />
    <glyph glyph-name="Eacute" unicode="&#xc9;" horiz-adv-x="515" 
d="M464 544h-313v-194h284v-70h-284v-209h313v-71h-391v614h391v-70zM309 785h87l-91 -117h-76z" />
    <glyph glyph-name="Ecircumflex" unicode="&#xca;" horiz-adv-x="515" 
d="M464 544h-313v-194h284v-70h-284v-209h313v-71h-391v614h391v-70zM332 669l-59 71l-59 -71h-68l92 122h70l92 -122h-68z" />
    <glyph glyph-name="Edieresis" unicode="&#xcb;" horiz-adv-x="515" 
d="M464 544h-313v-194h284v-70h-284v-209h313v-71h-391v614h391v-70zM157 722q0 20 13.5 33t33.5 13q19 0 32.5 -13t13.5 -33t-13.5 -33t-32.5 -13q-20 0 -33.5 13t-13.5 33zM298 722q0 20 13 33t32 13q20 0 33.5 -13t13.5 -33t-13.5 -33t-33.5 -13q-19 0 -32 13t-13 33z
" />
    <glyph glyph-name="Igrave" unicode="&#xcc;" horiz-adv-x="225" 
d="M73 0v614h79v-614h-79zM-13 785h87l80 -117h-75z" />
    <glyph glyph-name="Iacute" unicode="&#xcd;" horiz-adv-x="225" 
d="M73 0v614h79v-614h-79zM149 785h87l-91 -117h-76z" />
    <glyph glyph-name="Icircumflex" unicode="&#xce;" horiz-adv-x="225" 
d="M73 0v614h79v-614h-79zM172 669l-59 71l-59 -71h-68l92 122h70l92 -122h-68z" />
    <glyph glyph-name="Idieresis" unicode="&#xcf;" horiz-adv-x="225" 
d="M73 0v614h79v-614h-79zM-3 722q0 20 13.5 33t33.5 13q19 0 32.5 -13t13.5 -33t-13.5 -33t-32.5 -13q-20 0 -33.5 13t-13.5 33zM138 722q0 20 13 33t32 13q20 0 33.5 -13t13.5 -33t-13.5 -33t-33.5 -13q-19 0 -32 13t-13 33z" />
    <glyph glyph-name="Eth" unicode="&#xd0;" horiz-adv-x="620" 
d="M88 351v263h197q67 0 122 -21.5t94 -61.5t60.5 -97t21.5 -127t-21.5 -127t-60.5 -97t-94 -61.5t-122 -21.5h-197v284h-56v67h56zM284 71q52 0 93 16.5t69.5 47.5t43.5 74.5t15 97.5t-15 98t-43.5 74.5t-69.5 47.5t-93 17h-117v-193h123v-67h-123v-213h117z" />
    <glyph glyph-name="Ntilde" unicode="&#xd1;" horiz-adv-x="623" 
d="M492 0l-343 488v-488h-76v614h75l327 -467v467h75v-614h-58zM446 784q0 -54 -19 -86.5t-57 -32.5q-18 0 -32.5 8.5t-27.5 19t-25 19.5t-25 9q-34 0 -34 -53h-49q0 54 19 86.5t57 32.5q19 0 33.5 -9t27 -19.5t24.5 -19t26 -8.5q32 0 34 53h48z" />
    <glyph glyph-name="Ograve" unicode="&#xd2;" horiz-adv-x="629" 
d="M592 307q0 -69 -20.5 -127t-57.5 -100t-88 -65.5t-112 -23.5q-60 0 -111 23.5t-88 65.5t-57.5 100t-20.5 127q0 70 20.5 128t57.5 100t88 65t111 23q61 0 112 -23t88 -65t57.5 -100t20.5 -128zM513 307q0 54 -14.5 99t-40.5 77.5t-62.5 50.5t-81.5 18q-44 0 -80.5 -18
t-62.5 -50.5t-40.5 -77.5t-14.5 -99t14.5 -99t40.5 -77.5t62.5 -50.5t80.5 -18q45 0 81.5 18t62.5 50.5t40.5 77.5t14.5 99zM188 785h87l80 -117h-75z" />
    <glyph glyph-name="Oacute" unicode="&#xd3;" horiz-adv-x="629" 
d="M592 307q0 -69 -20.5 -127t-57.5 -100t-88 -65.5t-112 -23.5q-60 0 -111 23.5t-88 65.5t-57.5 100t-20.5 127q0 70 20.5 128t57.5 100t88 65t111 23q61 0 112 -23t88 -65t57.5 -100t20.5 -128zM513 307q0 54 -14.5 99t-40.5 77.5t-62.5 50.5t-81.5 18q-44 0 -80.5 -18
t-62.5 -50.5t-40.5 -77.5t-14.5 -99t14.5 -99t40.5 -77.5t62.5 -50.5t80.5 -18q45 0 81.5 18t62.5 50.5t40.5 77.5t14.5 99zM350 785h87l-91 -117h-76z" />
    <glyph glyph-name="Ocircumflex" unicode="&#xd4;" horiz-adv-x="629" 
d="M592 307q0 -69 -20.5 -127t-57.5 -100t-88 -65.5t-112 -23.5q-60 0 -111 23.5t-88 65.5t-57.5 100t-20.5 127q0 70 20.5 128t57.5 100t88 65t111 23q61 0 112 -23t88 -65t57.5 -100t20.5 -128zM513 307q0 54 -14.5 99t-40.5 77.5t-62.5 50.5t-81.5 18q-44 0 -80.5 -18
t-62.5 -50.5t-40.5 -77.5t-14.5 -99t14.5 -99t40.5 -77.5t62.5 -50.5t80.5 -18q45 0 81.5 18t62.5 50.5t40.5 77.5t14.5 99zM373 669l-59 71l-59 -71h-68l92 122h70l92 -122h-68z" />
    <glyph glyph-name="Otilde" unicode="&#xd5;" horiz-adv-x="629" 
d="M592 307q0 -69 -20.5 -127t-57.5 -100t-88 -65.5t-112 -23.5q-60 0 -111 23.5t-88 65.5t-57.5 100t-20.5 127q0 70 20.5 128t57.5 100t88 65t111 23q61 0 112 -23t88 -65t57.5 -100t20.5 -128zM513 307q0 54 -14.5 99t-40.5 77.5t-62.5 50.5t-81.5 18q-44 0 -80.5 -18
t-62.5 -50.5t-40.5 -77.5t-14.5 -99t14.5 -99t40.5 -77.5t62.5 -50.5t80.5 -18q45 0 81.5 18t62.5 50.5t40.5 77.5t14.5 99zM449 784q0 -54 -19 -86.5t-57 -32.5q-18 0 -32.5 8.5t-27.5 19t-25 19.5t-25 9q-34 0 -34 -53h-49q0 54 19 86.5t57 32.5q19 0 33.5 -9t27 -19.5
t24.5 -19t26 -8.5q32 0 34 53h48z" />
    <glyph glyph-name="Odieresis" unicode="&#xd6;" horiz-adv-x="629" 
d="M592 307q0 -69 -20.5 -127t-57.5 -100t-88 -65.5t-112 -23.5q-60 0 -111 23.5t-88 65.5t-57.5 100t-20.5 127q0 70 20.5 128t57.5 100t88 65t111 23q61 0 112 -23t88 -65t57.5 -100t20.5 -128zM513 307q0 54 -14.5 99t-40.5 77.5t-62.5 50.5t-81.5 18q-44 0 -80.5 -18
t-62.5 -50.5t-40.5 -77.5t-14.5 -99t14.5 -99t40.5 -77.5t62.5 -50.5t80.5 -18q45 0 81.5 18t62.5 50.5t40.5 77.5t14.5 99zM198 722q0 20 13.5 33t33.5 13q19 0 32.5 -13t13.5 -33t-13.5 -33t-32.5 -13q-20 0 -33.5 13t-13.5 33zM339 722q0 20 13 33t32 13q20 0 33.5 -13
t13.5 -33t-13.5 -33t-33.5 -13q-19 0 -32 13t-13 33z" />
    <glyph glyph-name="multiply" unicode="&#xd7;" horiz-adv-x="470" 
d="M114 458l120 -122l122 122l43 -42l-122 -121l122 -122l-43 -43l-122 122l-120 -122l-43 43l122 122l-122 121z" />
    <glyph glyph-name="Oslash" unicode="&#xd8;" horiz-adv-x="639" 
d="M112 89q-33 42 -51.5 97t-18.5 121q0 70 20.5 128t57.5 100t88 65t111 23q50 0 92.5 -15.5t77.5 -44.5l47 60l46 -33l-54 -67q33 -42 51 -96.5t18 -119.5q0 -69 -20.5 -127t-57.5 -100t-88 -65.5t-112 -23.5q-97 0 -166 57l-50 -63l-47 33zM121 307q0 -47 9.5 -87
t29.5 -71l284 357q-24 22 -55.5 34t-69.5 12q-44 0 -80.5 -18t-62.5 -50.5t-40.5 -77.5t-14.5 -99zM518 307q0 45 -9.5 84.5t-28.5 70.5l-282 -357q48 -43 121 -43q45 0 81.5 18t62.5 50.5t40.5 77.5t14.5 99z" />
    <glyph glyph-name="Ugrave" unicode="&#xd9;" horiz-adv-x="607" 
d="M303 -9q-52 0 -96 16t-76 47.5t-50 79t-18 110.5v370h78v-361q0 -99 43.5 -145.5t118.5 -46.5t118.5 46.5t43.5 145.5v361h79v-371q0 -63 -18 -110.5t-50 -79t-76.5 -47t-96.5 -15.5zM177 785h87l80 -117h-75z" />
    <glyph glyph-name="Uacute" unicode="&#xda;" horiz-adv-x="607" 
d="M303 -9q-52 0 -96 16t-76 47.5t-50 79t-18 110.5v370h78v-361q0 -99 43.5 -145.5t118.5 -46.5t118.5 46.5t43.5 145.5v361h79v-371q0 -63 -18 -110.5t-50 -79t-76.5 -47t-96.5 -15.5zM339 785h87l-91 -117h-76z" />
    <glyph glyph-name="Ucircumflex" unicode="&#xdb;" horiz-adv-x="607" 
d="M303 -9q-52 0 -96 16t-76 47.5t-50 79t-18 110.5v370h78v-361q0 -99 43.5 -145.5t118.5 -46.5t118.5 46.5t43.5 145.5v361h79v-371q0 -63 -18 -110.5t-50 -79t-76.5 -47t-96.5 -15.5zM362 669l-59 71l-59 -71h-68l92 122h70l92 -122h-68z" />
    <glyph glyph-name="Udieresis" unicode="&#xdc;" horiz-adv-x="607" 
d="M303 -9q-52 0 -96 16t-76 47.5t-50 79t-18 110.5v370h78v-361q0 -99 43.5 -145.5t118.5 -46.5t118.5 46.5t43.5 145.5v361h79v-371q0 -63 -18 -110.5t-50 -79t-76.5 -47t-96.5 -15.5zM187 722q0 20 13.5 33t33.5 13q19 0 32.5 -13t13.5 -33t-13.5 -33t-32.5 -13
q-20 0 -33.5 13t-13.5 33zM328 722q0 20 13 33t32 13q20 0 33.5 -13t13.5 -33t-13.5 -33t-33.5 -13q-19 0 -32 13t-13 33z" />
    <glyph glyph-name="Yacute" unicode="&#xdd;" horiz-adv-x="557" 
d="M541 614l-224 -361v-253h-78v253l-222 361h86l177 -290l177 290h84zM315 785h87l-91 -117h-76z" />
    <glyph glyph-name="Thorn" unicode="&#xde;" horiz-adv-x="537" 
d="M152 0h-79v614h79v-115h151q94 0 148 -46.5t54 -137.5t-54 -137.5t-148 -46.5h-151v-131zM427 315q0 53 -31.5 84t-94.5 31h-149v-230h149q63 0 94.5 31.5t31.5 83.5z" />
    <glyph glyph-name="germandbls" unicode="&#xdf;" 
d="M67 518q0 67 38.5 104t96.5 37q35 0 59 -10v-68q-11 7 -23 9.5t-24 2.5q-33 0 -53 -20.5t-20 -60.5v-68h329v-4l-134 -208q26 -13 49.5 -30.5t41 -41t27.5 -52t10 -62.5q0 -53 -19.5 -94.5t-55.5 -70.5t-87.5 -44.5t-115.5 -15.5v66q95 -1 149.5 40t54.5 119
q0 58 -39.5 95t-102.5 60v4l111 175h-218v-380h-74v518z" />
    <glyph glyph-name="agrave" unicode="&#xe0;" horiz-adv-x="448" 
d="M314 295q0 42 -28.5 65.5t-77.5 23.5q-37 0 -67.5 -10.5t-58.5 -28.5v71q23 16 59.5 26.5t78.5 10.5q79 0 123 -40.5t44 -111.5v-301h-73v33q-13 -14 -44.5 -27.5t-70.5 -13.5q-34 0 -64 10t-52.5 28t-35.5 44.5t-13 59.5q0 31 13 56.5t36 44t53.5 28.5t66.5 10
q35 0 66 -11.5t45 -24.5v58zM314 156q-9 25 -38.5 40t-64.5 15q-20 0 -39 -4.5t-34 -14t-24 -24t-9 -34.5t9 -35t24 -25t34 -14.5t39 -4.5q35 0 64.5 15t38.5 40v46zM111 650h78l80 -134h-69z" />
    <glyph glyph-name="aacute" unicode="&#xe1;" horiz-adv-x="448" 
d="M314 295q0 42 -28.5 65.5t-77.5 23.5q-37 0 -67.5 -10.5t-58.5 -28.5v71q23 16 59.5 26.5t78.5 10.5q79 0 123 -40.5t44 -111.5v-301h-73v33q-13 -14 -44.5 -27.5t-70.5 -13.5q-34 0 -64 10t-52.5 28t-35.5 44.5t-13 59.5q0 31 13 56.5t36 44t53.5 28.5t66.5 10
q35 0 66 -11.5t45 -24.5v58zM314 156q-9 25 -38.5 40t-64.5 15q-20 0 -39 -4.5t-34 -14t-24 -24t-9 -34.5t9 -35t24 -25t34 -14.5t39 -4.5q35 0 64.5 15t38.5 40v46zM270 650h78l-89 -134h-69z" />
    <glyph glyph-name="acircumflex" unicode="&#xe2;" horiz-adv-x="448" 
d="M314 295q0 42 -28.5 65.5t-77.5 23.5q-37 0 -67.5 -10.5t-58.5 -28.5v71q23 16 59.5 26.5t78.5 10.5q79 0 123 -40.5t44 -111.5v-301h-73v33q-13 -14 -44.5 -27.5t-70.5 -13.5q-34 0 -64 10t-52.5 28t-35.5 44.5t-13 59.5q0 31 13 56.5t36 44t53.5 28.5t66.5 10
q35 0 66 -11.5t45 -24.5v58zM314 156q-9 25 -38.5 40t-64.5 15q-20 0 -39 -4.5t-34 -14t-24 -24t-9 -34.5t9 -35t24 -25t34 -14.5t39 -4.5q35 0 64.5 15t38.5 40v46zM292 509l-62 88l-62 -88h-65l92 136h70l92 -136h-65z" />
    <glyph glyph-name="atilde" unicode="&#xe3;" horiz-adv-x="448" 
d="M314 295q0 42 -28.5 65.5t-77.5 23.5q-37 0 -67.5 -10.5t-58.5 -28.5v71q23 16 59.5 26.5t78.5 10.5q79 0 123 -40.5t44 -111.5v-301h-73v33q-13 -14 -44.5 -27.5t-70.5 -13.5q-34 0 -64 10t-52.5 28t-35.5 44.5t-13 59.5q0 31 13 56.5t36 44t53.5 28.5t66.5 10
q35 0 66 -11.5t45 -24.5v58zM314 156q-9 25 -38.5 40t-64.5 15q-20 0 -39 -4.5t-34 -14t-24 -24t-9 -34.5t9 -35t24 -25t34 -14.5t39 -4.5q35 0 64.5 15t38.5 40v46zM362 633q0 -54 -19 -86t-57 -32q-17 0 -31 9t-26 20t-23.5 20t-23.5 9q-17 0 -25.5 -14.5t-8.5 -40.5h-48
q0 54 19 86t57 32q18 0 32 -9t26 -20t23 -20t23 -9q17 0 25 14.5t9 40.5h48z" />
    <glyph glyph-name="adieresis" unicode="&#xe4;" horiz-adv-x="448" 
d="M314 295q0 42 -28.5 65.5t-77.5 23.5q-37 0 -67.5 -10.5t-58.5 -28.5v71q23 16 59.5 26.5t78.5 10.5q79 0 123 -40.5t44 -111.5v-301h-73v33q-13 -14 -44.5 -27.5t-70.5 -13.5q-34 0 -64 10t-52.5 28t-35.5 44.5t-13 59.5q0 31 13 56.5t36 44t53.5 28.5t66.5 10
q35 0 66 -11.5t45 -24.5v58zM314 156q-9 25 -38.5 40t-64.5 15q-20 0 -39 -4.5t-34 -14t-24 -24t-9 -34.5t9 -35t24 -25t34 -14.5t39 -4.5q35 0 64.5 15t38.5 40v46zM114 571q0 20 13.5 33.5t33.5 13.5q19 0 32.5 -13.5t13.5 -33.5q0 -19 -13.5 -32.5t-32.5 -13.5
q-20 0 -33.5 13.5t-13.5 32.5zM255 571q0 20 13 33.5t32 13.5q20 0 33.5 -13.5t13.5 -33.5q0 -19 -13.5 -32.5t-33.5 -13.5q-19 0 -32 13.5t-13 32.5z" />
    <glyph glyph-name="aring" unicode="&#xe5;" horiz-adv-x="448" 
d="M314 295q0 42 -28.5 65.5t-77.5 23.5q-37 0 -67.5 -10.5t-58.5 -28.5v71q23 16 59.5 26.5t78.5 10.5q79 0 123 -40.5t44 -111.5v-301h-73v33q-13 -14 -44.5 -27.5t-70.5 -13.5q-34 0 -64 10t-52.5 28t-35.5 44.5t-13 59.5q0 31 13 56.5t36 44t53.5 28.5t66.5 10
q35 0 66 -11.5t45 -24.5v58zM314 156q-9 25 -38.5 40t-64.5 15q-20 0 -39 -4.5t-34 -14t-24 -24t-9 -34.5t9 -35t24 -25t34 -14.5t39 -4.5q35 0 64.5 15t38.5 40v46zM317 580q0 -37 -25 -61.5t-62 -24.5t-62 24.5t-25 61.5t25 61.5t62 24.5t62 -24.5t25 -61.5zM275 580
q0 20 -13 32.5t-32 12.5t-32 -12.5t-13 -32.5t13 -32.5t32 -12.5t32 12.5t13 32.5z" />
    <glyph glyph-name="ae" unicode="&#xe6;" horiz-adv-x="723" 
d="M522 -9q-57 0 -100 22t-70 64q-26 -35 -64.5 -60t-94.5 -25q-33 0 -62 9.5t-50.5 27.5t-34 43t-12.5 56q0 32 13 57.5t36.5 43.5t54.5 27.5t67 9.5h110v24q0 45 -29 69.5t-78 24.5q-37 0 -67.5 -10.5t-58.5 -28.5v71q23 16 59.5 26.5t78.5 10.5q55 0 91 -22t52 -58
q23 36 59 58t84 22q45 0 79 -16t57.5 -45t35 -69t11.5 -89v-27h-306q4 -78 46 -114t102 -36q38 0 67 9.5t60 32.5v-69q-27 -21 -61 -30t-75 -9zM199 55q44 0 73.5 23t42.5 58v71h-105q-20 0 -39 -4.5t-33.5 -13.5t-23.5 -23.5t-9 -33.5q0 -39 28 -58t66 -19zM507 389
q-45 0 -78.5 -30.5t-42.5 -92.5h230q-1 24 -8 46.5t-20.5 39.5t-33.5 27t-47 10z" />
    <glyph glyph-name="ccedilla" unicode="&#xe7;" horiz-adv-x="405" 
d="M35 222q0 53 16.5 96t45.5 73t68 46t84 16q32 0 64 -8.5t55 -28.5v-76q-24 24 -53 35t-61 11q-30 0 -56 -11.5t-45.5 -32.5t-30.5 -51.5t-11 -68.5t11 -68.5t30.5 -51.5t45.5 -32.5t56 -11.5q32 0 61 11t53 35v-76q-23 -20 -55 -28.5t-64 -8.5q-45 0 -84 16t-68 46
t-45.5 73t-16.5 96zM217 -51h74l-69 -132h-71z" />
    <glyph glyph-name="egrave" unicode="&#xe8;" horiz-adv-x="450" 
d="M109 209q1 -39 13 -67.5t32 -47t47 -28t57 -9.5q38 0 67 9.5t59 32.5v-69q-27 -21 -61 -30t-74 -9q-48 0 -87.5 16t-67.5 45t-43.5 71t-15.5 95q0 52 14.5 95t40.5 74t62.5 48.5t80.5 17.5q45 0 79 -15.5t57 -44t34.5 -68.5t11.5 -89v-27h-306zM234 389
q-45 0 -77.5 -29.5t-43.5 -91.5h229q-1 24 -8 46t-20 38.5t-33 26.5t-47 10zM119 650h78l80 -134h-69z" />
    <glyph glyph-name="eacute" unicode="&#xe9;" horiz-adv-x="450" 
d="M109 209q1 -39 13 -67.5t32 -47t47 -28t57 -9.5q38 0 67 9.5t59 32.5v-69q-27 -21 -61 -30t-74 -9q-48 0 -87.5 16t-67.5 45t-43.5 71t-15.5 95q0 52 14.5 95t40.5 74t62.5 48.5t80.5 17.5q45 0 79 -15.5t57 -44t34.5 -68.5t11.5 -89v-27h-306zM234 389
q-45 0 -77.5 -29.5t-43.5 -91.5h229q-1 24 -8 46t-20 38.5t-33 26.5t-47 10zM278 650h78l-89 -134h-69z" />
    <glyph glyph-name="ecircumflex" unicode="&#xea;" horiz-adv-x="450" 
d="M109 209q1 -39 13 -67.5t32 -47t47 -28t57 -9.5q38 0 67 9.5t59 32.5v-69q-27 -21 -61 -30t-74 -9q-48 0 -87.5 16t-67.5 45t-43.5 71t-15.5 95q0 52 14.5 95t40.5 74t62.5 48.5t80.5 17.5q45 0 79 -15.5t57 -44t34.5 -68.5t11.5 -89v-27h-306zM234 389
q-45 0 -77.5 -29.5t-43.5 -91.5h229q-1 24 -8 46t-20 38.5t-33 26.5t-47 10zM300 509l-62 88l-62 -88h-65l92 136h70l92 -136h-65z" />
    <glyph glyph-name="edieresis" unicode="&#xeb;" horiz-adv-x="450" 
d="M109 209q1 -39 13 -67.5t32 -47t47 -28t57 -9.5q38 0 67 9.5t59 32.5v-69q-27 -21 -61 -30t-74 -9q-48 0 -87.5 16t-67.5 45t-43.5 71t-15.5 95q0 52 14.5 95t40.5 74t62.5 48.5t80.5 17.5q45 0 79 -15.5t57 -44t34.5 -68.5t11.5 -89v-27h-306zM234 389
q-45 0 -77.5 -29.5t-43.5 -91.5h229q-1 24 -8 46t-20 38.5t-33 26.5t-47 10zM122 571q0 20 13.5 33.5t33.5 13.5q19 0 32.5 -13.5t13.5 -33.5q0 -19 -13.5 -32.5t-32.5 -13.5q-20 0 -33.5 13.5t-13.5 32.5zM263 571q0 20 13 33.5t32 13.5q20 0 33.5 -13.5t13.5 -33.5
q0 -19 -13.5 -32.5t-33.5 -13.5q-19 0 -32 13.5t-13 32.5z" />
    <glyph glyph-name="igrave" unicode="&#xec;" horiz-adv-x="209" 
d="M67 0v444h75v-444h-75zM-14 650h78l80 -134h-69z" />
    <glyph glyph-name="iacute" unicode="&#xed;" horiz-adv-x="209" 
d="M67 0v444h75v-444h-75zM146 650h78l-89 -134h-69z" />
    <glyph glyph-name="icircumflex" unicode="&#xee;" horiz-adv-x="209" 
d="M149 509l-45 85l-45 -85h-63l74 136h69l74 -136h-64zM67 0v444h75v-444h-75z" />
    <glyph glyph-name="idieresis" unicode="&#xef;" horiz-adv-x="209" 
d="M-3 571q0 20 13 33.5t33 13.5q19 0 32.5 -13.5t13.5 -33.5q0 -19 -13.5 -32.5t-32.5 -13.5q-20 0 -33 13.5t-13 32.5zM121 571q0 20 13 33.5t32 13.5q20 0 33.5 -13.5t13.5 -33.5q0 -19 -13.5 -32.5t-33.5 -13.5q-19 0 -32 13.5t-13 32.5zM67 0v444h75v-444h-75z" />
    <glyph glyph-name="eth" unicode="&#xf0;" horiz-adv-x="478" 
d="M201 567q-48 42 -100 79v4h98q20 -14 38.5 -28t35.5 -31l85 29l17 -47l-63 -21q60 -68 95.5 -150.5t35.5 -175.5q0 -53 -15 -96.5t-42 -74t-64.5 -47.5t-82.5 -17q-46 0 -83.5 17t-64.5 47t-41.5 72t-14.5 93t14.5 93.5t40.5 72.5t62 47t79 17q35 0 60.5 -12.5
t42.5 -31.5h3q-11 26 -35.5 57t-58.5 65l-104 -34l-18 47zM367 220q0 73 -34 118.5t-94 45.5t-94 -45.5t-34 -118.5t34 -118t94 -45t94 45t34 118z" />
    <glyph glyph-name="ntilde" unicode="&#xf1;" horiz-adv-x="489" 
d="M142 444v-56q20 26 54 45.5t77 19.5q76 0 116 -44.5t40 -117.5v-291h-76v279q0 47 -23.5 76t-74.5 29q-39 0 -70 -23.5t-43 -59.5v-301h-75v444h75zM380 633q0 -54 -19 -86t-57 -32q-17 0 -31 9t-26 20t-23.5 20t-23.5 9q-17 0 -25.5 -14.5t-8.5 -40.5h-48q0 54 19 86
t57 32q18 0 32 -9t26 -20t23 -20t23 -9q17 0 25 14.5t9 40.5h48z" />
    <glyph glyph-name="ograve" unicode="&#xf2;" horiz-adv-x="478" 
d="M443 222q0 -51 -15 -93.5t-42 -73t-64.5 -47.5t-82.5 -17q-46 0 -83.5 17t-64.5 47.5t-41.5 73t-14.5 93.5t14.5 93.5t41.5 73t64.5 47.5t83.5 17q45 0 82.5 -17t64.5 -47.5t42 -73t15 -93.5zM367 222q0 73 -34 119t-94 46t-94 -46t-34 -119t34 -119t94 -46t94 46t34 119
zM120 650h78l80 -134h-69z" />
    <glyph glyph-name="oacute" unicode="&#xf3;" horiz-adv-x="478" 
d="M443 222q0 -51 -15 -93.5t-42 -73t-64.5 -47.5t-82.5 -17q-46 0 -83.5 17t-64.5 47.5t-41.5 73t-14.5 93.5t14.5 93.5t41.5 73t64.5 47.5t83.5 17q45 0 82.5 -17t64.5 -47.5t42 -73t15 -93.5zM367 222q0 73 -34 119t-94 46t-94 -46t-34 -119t34 -119t94 -46t94 46t34 119
zM279 650h78l-89 -134h-69z" />
    <glyph glyph-name="ocircumflex" unicode="&#xf4;" horiz-adv-x="478" 
d="M443 222q0 -51 -15 -93.5t-42 -73t-64.5 -47.5t-82.5 -17q-46 0 -83.5 17t-64.5 47.5t-41.5 73t-14.5 93.5t14.5 93.5t41.5 73t64.5 47.5t83.5 17q45 0 82.5 -17t64.5 -47.5t42 -73t15 -93.5zM367 222q0 73 -34 119t-94 46t-94 -46t-34 -119t34 -119t94 -46t94 46t34 119
zM302 509l-62 88l-62 -88h-65l92 136h70l92 -136h-65z" />
    <glyph glyph-name="otilde" unicode="&#xf5;" horiz-adv-x="478" 
d="M443 222q0 -51 -15 -93.5t-42 -73t-64.5 -47.5t-82.5 -17q-46 0 -83.5 17t-64.5 47.5t-41.5 73t-14.5 93.5t14.5 93.5t41.5 73t64.5 47.5t83.5 17q45 0 82.5 -17t64.5 -47.5t42 -73t15 -93.5zM367 222q0 73 -34 119t-94 46t-94 -46t-34 -119t34 -119t94 -46t94 46t34 119
zM371 633q0 -54 -19 -86t-57 -32q-17 0 -31 9t-26 20t-23.5 20t-23.5 9q-17 0 -25.5 -14.5t-8.5 -40.5h-48q0 54 19 86t57 32q18 0 32 -9t26 -20t23 -20t23 -9q17 0 25 14.5t9 40.5h48z" />
    <glyph glyph-name="odieresis" unicode="&#xf6;" horiz-adv-x="478" 
d="M443 222q0 -51 -15 -93.5t-42 -73t-64.5 -47.5t-82.5 -17q-46 0 -83.5 17t-64.5 47.5t-41.5 73t-14.5 93.5t14.5 93.5t41.5 73t64.5 47.5t83.5 17q45 0 82.5 -17t64.5 -47.5t42 -73t15 -93.5zM367 222q0 73 -34 119t-94 46t-94 -46t-34 -119t34 -119t94 -46t94 46t34 119
zM124 571q0 20 13.5 33.5t33.5 13.5q19 0 32.5 -13.5t13.5 -33.5q0 -19 -13.5 -32.5t-32.5 -13.5q-20 0 -33.5 13.5t-13.5 32.5zM265 571q0 20 13 33.5t32 13.5q20 0 33.5 -13.5t13.5 -33.5q0 -19 -13.5 -32.5t-33.5 -13.5q-19 0 -32 13.5t-13 32.5z" />
    <glyph glyph-name="divide" unicode="&#xf7;" horiz-adv-x="540" 
d="M467 328v-62h-394v62h394zM220 458q0 21 14.5 36t35.5 15t36 -15t15 -36t-15 -36t-36 -15t-35.5 15t-14.5 36zM220 136q0 21 14.5 36t35.5 15t36 -15t15 -36t-15 -36t-36 -15t-35.5 15t-14.5 36z" />
    <glyph glyph-name="oslash" unicode="&#xf8;" horiz-adv-x="488" 
d="M89 64q-49 61 -49 158q0 51 14.5 93.5t41.5 73t64.5 47.5t83.5 17q68 0 117 -37l42 53l41 -29l-46 -60q23 -30 36.5 -70t13.5 -88q0 -51 -15 -93.5t-42 -73t-64.5 -47.5t-82.5 -17q-70 0 -119 38l-44 -57l-41 29zM373 222q0 57 -22 99l-184 -238q31 -26 77 -26
q60 0 94.5 46t34.5 119zM115 222q0 -58 20 -98l184 237q-31 26 -75 26q-60 0 -94.5 -46t-34.5 -119z" />
    <glyph glyph-name="ugrave" unicode="&#xf9;" horiz-adv-x="487" 
d="M345 0v56q-19 -26 -52.5 -45.5t-76.5 -19.5q-76 0 -115.5 44.5t-39.5 117.5v291h76v-279q0 -47 23 -76t74 -29q39 0 69 23.5t42 59.5v301h76v-444h-76zM124 650h78l80 -134h-69z" />
    <glyph glyph-name="uacute" unicode="&#xfa;" horiz-adv-x="487" 
d="M345 0v56q-19 -26 -52.5 -45.5t-76.5 -19.5q-76 0 -115.5 44.5t-39.5 117.5v291h76v-279q0 -47 23 -76t74 -29q39 0 69 23.5t42 59.5v301h76v-444h-76zM283 650h78l-89 -134h-69z" />
    <glyph glyph-name="ucircumflex" unicode="&#xfb;" horiz-adv-x="487" 
d="M345 0v56q-19 -26 -52.5 -45.5t-76.5 -19.5q-76 0 -115.5 44.5t-39.5 117.5v291h76v-279q0 -47 23 -76t74 -29q39 0 69 23.5t42 59.5v301h76v-444h-76zM306 509l-62 88l-62 -88h-65l92 136h70l92 -136h-65z" />
    <glyph glyph-name="udieresis" unicode="&#xfc;" horiz-adv-x="487" 
d="M345 0v56q-19 -26 -52.5 -45.5t-76.5 -19.5q-76 0 -115.5 44.5t-39.5 117.5v291h76v-279q0 -47 23 -76t74 -29q39 0 69 23.5t42 59.5v301h76v-444h-76zM128 571q0 20 13.5 33.5t33.5 13.5q19 0 32.5 -13.5t13.5 -33.5q0 -19 -13.5 -32.5t-32.5 -13.5q-20 0 -33.5 13.5
t-13.5 32.5zM269 571q0 20 13 33.5t32 13.5q20 0 33.5 -13.5t13.5 -33.5q0 -19 -13.5 -32.5t-33.5 -13.5q-19 0 -32 13.5t-13 32.5z" />
    <glyph glyph-name="yacute" unicode="&#xfd;" horiz-adv-x="455" 
d="M191 -3l-173 447h81l131 -350l129 350h78l-239 -614h-74zM268 650h78l-89 -134h-69z" />
    <glyph glyph-name="thorn" unicode="&#xfe;" horiz-adv-x="502" 
d="M67 -170v820h75v-258q17 24 50 42.5t75 18.5q49 0 86.5 -19t62.5 -50.5t38 -73.5t13 -88t-13 -88t-38 -73.5t-62.5 -50.5t-86.5 -19q-42 0 -75 18.5t-50 42.5v-222h-75zM142 132q17 -35 48 -54t66 -19q32 0 57 12t42.5 34t26.5 52t9 65t-9 65t-26.5 51.5t-42.5 34
t-57 12.5q-35 0 -66 -19t-48 -54v-180z" />
    <glyph glyph-name="ydieresis" unicode="&#xff;" horiz-adv-x="455" 
d="M191 -3l-173 447h81l131 -350l129 350h78l-239 -614h-74zM112 571q0 20 13.5 33.5t33.5 13.5q19 0 32.5 -13.5t13.5 -33.5q0 -19 -13.5 -32.5t-32.5 -13.5q-20 0 -33.5 13.5t-13.5 32.5zM253 571q0 20 13 33.5t32 13.5q20 0 33.5 -13.5t13.5 -33.5q0 -19 -13.5 -32.5
t-33.5 -13.5q-19 0 -32 13.5t-13 32.5z" />
    <glyph glyph-name="Amacron" unicode="&#x100;" horiz-adv-x="596" 
d="M575 0h-80l-71 185h-253l-70 -185h-80l240 614h74zM397 254l-100 262l-100 -262h200zM405 732v-61h-213v61h213z" />
    <glyph glyph-name="amacron" unicode="&#x101;" horiz-adv-x="448" 
d="M314 295q0 42 -28.5 65.5t-77.5 23.5q-37 0 -67.5 -10.5t-58.5 -28.5v71q23 16 59.5 26.5t78.5 10.5q79 0 123 -40.5t44 -111.5v-301h-73v33q-13 -14 -44.5 -27.5t-70.5 -13.5q-34 0 -64 10t-52.5 28t-35.5 44.5t-13 59.5q0 31 13 56.5t36 44t53.5 28.5t66.5 10
q35 0 66 -11.5t45 -24.5v58zM314 156q-9 25 -38.5 40t-64.5 15q-20 0 -39 -4.5t-34 -14t-24 -24t-9 -34.5t9 -35t24 -25t34 -14.5t39 -4.5q35 0 64.5 15t38.5 40v46zM337 591v-61h-213v61h213z" />
    <glyph glyph-name="Abreve" unicode="&#x102;" horiz-adv-x="596" 
d="M575 0h-80l-71 185h-253l-70 -185h-80l240 614h74zM397 254l-100 262l-100 -262h200zM298 666q-51 0 -83 30.5t-32 89.5h57q0 -32 16 -48t42 -16t42.5 16t16.5 48h57q0 -59 -31.5 -89.5t-84.5 -30.5z" />
    <glyph glyph-name="abreve" unicode="&#x103;" horiz-adv-x="448" 
d="M314 295q0 42 -28.5 65.5t-77.5 23.5q-37 0 -67.5 -10.5t-58.5 -28.5v71q23 16 59.5 26.5t78.5 10.5q79 0 123 -40.5t44 -111.5v-301h-73v33q-13 -14 -44.5 -27.5t-70.5 -13.5q-34 0 -64 10t-52.5 28t-35.5 44.5t-13 59.5q0 31 13 56.5t36 44t53.5 28.5t66.5 10
q35 0 66 -11.5t45 -24.5v58zM314 156q-9 25 -38.5 40t-64.5 15q-20 0 -39 -4.5t-34 -14t-24 -24t-9 -34.5t9 -35t24 -25t34 -14.5t39 -4.5q35 0 64.5 15t38.5 40v46zM230 500q-51 0 -82.5 32.5t-31.5 95.5h57q0 -34 14.5 -53.5t42.5 -19.5t42.5 19.5t14.5 53.5h57
q0 -63 -31.5 -95.5t-82.5 -32.5z" />
    <glyph glyph-name="Aogonek" unicode="&#x104;" horiz-adv-x="596" 
d="M575 0q-15 -25 -24.5 -41t-15.5 -27.5t-8 -20t-2 -17.5q0 -26 23 -26q10 0 18 3.5t19 11.5v-50q-11 -8 -23.5 -13.5t-28.5 -5.5q-32 0 -49.5 18t-17.5 48q0 28 14.5 55t38.5 65h-24l-71 185h-253l-70 -185h-80l240 614h74zM398 254l-101 262l-100 -262h201z" />
    <glyph glyph-name="aogonek" unicode="&#x105;" horiz-adv-x="448" 
d="M314 156q-9 25 -38.5 40t-64.5 15q-20 0 -39 -4.5t-34 -14t-24 -24t-9 -34.5t9 -35t24 -25t34 -14.5t39 -4.5q35 0 64.5 15t38.5 40v46zM314 33q-13 -14 -44.5 -27.5t-70.5 -13.5q-34 0 -64 10t-52.5 28t-35.5 44.5t-13 59.5q0 31 13 56.5t36 44t53.5 28.5t66.5 10
q35 0 66 -11.5t45 -24.5v58q0 42 -28.5 65.5t-77.5 23.5q-37 0 -67.5 -10.5t-58.5 -28.5v71q23 16 59.5 26.5t78.5 10.5q79 0 123 -40.5t44 -111.5v-301q-15 -24 -24.5 -40.5t-15 -28t-7.5 -20t-2 -17.5q0 -26 23 -26q10 0 18 3.5t19 11.5v-50q-11 -8 -23.5 -13.5
t-28.5 -5.5q-33 0 -50 18t-17 48q0 28 14.5 55t37.5 65h-17v33z" />
    <glyph glyph-name="Cacute" unicode="&#x106;" horiz-adv-x="540" 
d="M37 307q0 72 22 130.5t60.5 99.5t91 63.5t114.5 22.5q54 0 94.5 -14t70.5 -39v-83q-38 35 -77 50t-87 15q-47 0 -85.5 -17.5t-66 -49.5t-43 -77.5t-15.5 -100.5q0 -56 15.5 -101t43 -77t66 -49.5t85.5 -17.5q48 0 87 15.5t77 49.5v-83q-30 -25 -70.5 -39t-94.5 -14
q-62 0 -114.5 22.5t-91 63.5t-60.5 99.5t-22 130.5zM362 785h87l-91 -117h-76z" />
    <glyph glyph-name="cacute" unicode="&#x107;" horiz-adv-x="405" 
d="M35 222q0 53 16.5 96t45.5 73t68 46t84 16q32 0 64 -8.5t55 -28.5v-76q-24 24 -53 35t-61 11q-30 0 -56 -11.5t-45.5 -32.5t-30.5 -51.5t-11 -68.5t11 -68.5t30.5 -51.5t45.5 -32.5t56 -11.5q32 0 61 11t53 35v-76q-23 -20 -55 -28.5t-64 -8.5q-45 0 -84 16t-68 46
t-45.5 73t-16.5 96zM290 650h78l-89 -134h-69z" />
    <glyph glyph-name="Ccircumflex" unicode="&#x108;" horiz-adv-x="540" 
d="M37 307q0 72 22 130.5t60.5 99.5t91 63.5t114.5 22.5q54 0 94.5 -14t70.5 -39v-83q-38 35 -77 50t-87 15q-47 0 -85.5 -17.5t-66 -49.5t-43 -77.5t-15.5 -100.5q0 -56 15.5 -101t43 -77t66 -49.5t85.5 -17.5q48 0 87 15.5t77 49.5v-83q-30 -25 -70.5 -39t-94.5 -14
q-62 0 -114.5 22.5t-91 63.5t-60.5 99.5t-22 130.5zM385 669l-59 71l-59 -71h-68l92 122h70l92 -122h-68z" />
    <glyph glyph-name="ccircumflex" unicode="&#x109;" horiz-adv-x="405" 
d="M35 222q0 53 16.5 96t45.5 73t68 46t84 16q32 0 64 -8.5t55 -28.5v-76q-24 24 -53 35t-61 11q-30 0 -56 -11.5t-45.5 -32.5t-30.5 -51.5t-11 -68.5t11 -68.5t30.5 -51.5t45.5 -32.5t56 -11.5q32 0 61 11t53 35v-76q-23 -20 -55 -28.5t-64 -8.5q-45 0 -84 16t-68 46
t-45.5 73t-16.5 96zM301 509l-62 88l-62 -88h-65l92 136h70l92 -136h-65z" />
    <glyph glyph-name="Cdotaccent" unicode="&#x10a;" horiz-adv-x="540" 
d="M37 307q0 72 22 130.5t60.5 99.5t91 63.5t114.5 22.5q54 0 94.5 -14t70.5 -39v-83q-38 35 -77 50t-87 15q-47 0 -85.5 -17.5t-66 -49.5t-43 -77.5t-15.5 -100.5q0 -56 15.5 -101t43 -77t66 -49.5t85.5 -17.5q48 0 87 15.5t77 49.5v-83q-30 -25 -70.5 -39t-94.5 -14
q-62 0 -114.5 22.5t-91 63.5t-60.5 99.5t-22 130.5zM371 721q0 -20 -14 -34t-34 -14t-34 14t-14 34t14 34.5t34 14.5t34 -14.5t14 -34.5z" />
    <glyph glyph-name="cdotaccent" unicode="&#x10b;" horiz-adv-x="405" 
d="M35 222q0 53 16.5 96t45.5 73t68 46t84 16q32 0 64 -8.5t55 -28.5v-76q-24 24 -53 35t-61 11q-30 0 -56 -11.5t-45.5 -32.5t-30.5 -51.5t-11 -68.5t11 -68.5t30.5 -51.5t45.5 -32.5t56 -11.5q32 0 61 11t53 35v-76q-23 -20 -55 -28.5t-64 -8.5q-45 0 -84 16t-68 46
t-45.5 73t-16.5 96zM291 578q0 -20 -14 -34t-34 -14t-34 14t-14 34t14 34t34 14t34 -14t14 -34z" />
    <glyph glyph-name="Ccaron" unicode="&#x10c;" horiz-adv-x="540" 
d="M37 307q0 72 22 130.5t60.5 99.5t91 63.5t114.5 22.5q54 0 94.5 -14t70.5 -39v-83q-38 35 -77 50t-87 15q-47 0 -85.5 -17.5t-66 -49.5t-43 -77.5t-15.5 -100.5q0 -56 15.5 -101t43 -77t66 -49.5t85.5 -17.5q48 0 87 15.5t77 49.5v-83q-30 -25 -70.5 -39t-94.5 -14
q-62 0 -114.5 22.5t-91 63.5t-60.5 99.5t-22 130.5zM267 787l59 -71l59 71h68l-92 -121h-70l-92 121h68z" />
    <glyph glyph-name="ccaron" unicode="&#x10d;" horiz-adv-x="405" 
d="M35 222q0 53 16.5 96t45.5 73t68 46t84 16q32 0 64 -8.5t55 -28.5v-76q-24 24 -53 35t-61 11q-30 0 -56 -11.5t-45.5 -32.5t-30.5 -51.5t-11 -68.5t11 -68.5t30.5 -51.5t45.5 -32.5t56 -11.5q32 0 61 11t53 35v-76q-23 -20 -55 -28.5t-64 -8.5q-45 0 -84 16t-68 46
t-45.5 73t-16.5 96zM208 510l-92 136h65l62 -87l62 87h65l-92 -136h-70z" />
    <glyph glyph-name="Dcaron" unicode="&#x10e;" horiz-adv-x="605" 
d="M269 71q52 0 93 16.5t69.5 47.5t43.5 74.5t15 97.5t-15 98t-43.5 74.5t-69.5 47.5t-93 17h-117v-473h117zM270 614q67 0 122 -21.5t94 -61.5t60.5 -97t21.5 -127t-21.5 -127t-60.5 -97t-94 -61.5t-122 -21.5h-197v614h197zM221 787l59 -71l59 71h68l-92 -121h-70l-92 121
h68z" />
    <glyph glyph-name="dcaron" unicode="&#x10f;" horiz-adv-x="502" 
d="M360 52q-17 -24 -50 -42.5t-75 -18.5q-49 0 -86 18.5t-62.5 50t-38.5 73.5t-13 89t13 89t38.5 73.5t62.5 50t86 18.5q42 0 75 -18.5t50 -42.5v258h76v-650h-76v52zM360 312q-17 35 -48 54t-66 19q-32 0 -57 -12.5t-42.5 -34t-26.5 -51.5t-9 -65t9 -65t26.5 -52t42.5 -34
t57 -12q35 0 66 19t48 54v180zM522 650h60l-33 -164h-60z" />
    <glyph glyph-name="Dcroat" unicode="&#x110;" horiz-adv-x="620" 
d="M88 351v263h197q67 0 122 -21.5t94 -61.5t60.5 -97t21.5 -127t-21.5 -127t-60.5 -97t-94 -61.5t-122 -21.5h-197v284h-56v67h56zM284 71q52 0 93 16.5t69.5 47.5t43.5 74.5t15 97.5t-15 98t-43.5 74.5t-69.5 47.5t-93 17h-117v-193h123v-67h-123v-213h117z" />
    <glyph glyph-name="dcroat" unicode="&#x111;" horiz-adv-x="502" 
d="M360 565v85h76v-85h56v-54h-56v-511h-76v52q-17 -24 -50 -42.5t-75 -18.5q-49 0 -86 18.5t-62.5 50t-38.5 73.5t-13 89t13 89t38.5 73.5t62.5 50t86 18.5q42 0 75 -18.5t50 -42.5v119h-108v54h108zM360 312q-17 35 -48 54t-66 19q-32 0 -57 -12.5t-42.5 -34t-26.5 -51.5
t-9 -65t9 -65t26.5 -52t42.5 -34t57 -12q35 0 66 19t48 54v180z" />
    <glyph glyph-name="Emacron" unicode="&#x112;" horiz-adv-x="515" 
d="M464 544h-313v-194h284v-70h-284v-209h313v-71h-391v614h391v-70zM380 732v-61h-213v61h213z" />
    <glyph glyph-name="emacron" unicode="&#x113;" horiz-adv-x="450" 
d="M109 209q1 -39 13 -67.5t32 -47t47 -28t57 -9.5q38 0 67 9.5t59 32.5v-69q-27 -21 -61 -30t-74 -9q-48 0 -87.5 16t-67.5 45t-43.5 71t-15.5 95q0 52 14.5 95t40.5 74t62.5 48.5t80.5 17.5q45 0 79 -15.5t57 -44t34.5 -68.5t11.5 -89v-27h-306zM234 389
q-45 0 -77.5 -29.5t-43.5 -91.5h229q-1 24 -8 46t-20 38.5t-33 26.5t-47 10zM345 591v-61h-213v61h213z" />
    <glyph glyph-name="Ebreve" unicode="&#x114;" horiz-adv-x="515" 
d="M464 544h-313v-194h284v-70h-284v-209h313v-71h-391v614h391v-70zM273 666q-51 0 -83 30.5t-32 89.5h57q0 -32 16 -48t42 -16t42.5 16t16.5 48h57q0 -59 -31.5 -89.5t-84.5 -30.5z" />
    <glyph glyph-name="ebreve" unicode="&#x115;" horiz-adv-x="450" 
d="M109 209q1 -39 13 -67.5t32 -47t47 -28t57 -9.5q38 0 67 9.5t59 32.5v-69q-27 -21 -61 -30t-74 -9q-48 0 -87.5 16t-67.5 45t-43.5 71t-15.5 95q0 52 14.5 95t40.5 74t62.5 48.5t80.5 17.5q45 0 79 -15.5t57 -44t34.5 -68.5t11.5 -89v-27h-306zM234 389
q-45 0 -77.5 -29.5t-43.5 -91.5h229q-1 24 -8 46t-20 38.5t-33 26.5t-47 10zM238 500q-51 0 -82.5 32.5t-31.5 95.5h57q0 -34 14.5 -53.5t42.5 -19.5t42.5 19.5t14.5 53.5h57q0 -63 -31.5 -95.5t-82.5 -32.5z" />
    <glyph glyph-name="Edotaccent" unicode="&#x116;" horiz-adv-x="515" 
d="M464 544h-313v-194h284v-70h-284v-209h313v-71h-391v614h391v-70zM321 721q0 -20 -14 -34t-34 -14t-34 14t-14 34t14 34.5t34 14.5t34 -14.5t14 -34.5z" />
    <glyph glyph-name="edotaccent" unicode="&#x117;" horiz-adv-x="450" 
d="M109 209q1 -39 13 -67.5t32 -47t47 -28t57 -9.5q38 0 67 9.5t59 32.5v-69q-27 -21 -61 -30t-74 -9q-48 0 -87.5 16t-67.5 45t-43.5 71t-15.5 95q0 52 14.5 95t40.5 74t62.5 48.5t80.5 17.5q45 0 79 -15.5t57 -44t34.5 -68.5t11.5 -89v-27h-306zM234 389
q-45 0 -77.5 -29.5t-43.5 -91.5h229q-1 24 -8 46t-20 38.5t-33 26.5t-47 10zM286 578q0 -20 -14 -34t-34 -14t-34 14t-14 34t14 34t34 14t34 -14t14 -34z" />
    <glyph glyph-name="Eogonek" unicode="&#x118;" horiz-adv-x="515" 
d="M464 544h-313v-194h284v-70h-284v-209h313v-71h-33q-14 -23 -23.5 -39t-15 -28t-8 -21t-2.5 -18q0 -26 22 -26q10 0 18 3.5t19 11.5v-50q-11 -8 -23.5 -13.5t-28.5 -5.5q-32 0 -49 18t-17 48q0 28 14.5 55t37.5 65h-302v614h391v-70z" />
    <glyph glyph-name="eogonek" unicode="&#x119;" horiz-adv-x="450" 
d="M219 -118q0 56 55 111q-5 -1 -13 -1.5t-12 -0.5q-48 0 -87.5 16t-67.5 45t-43.5 71t-15.5 95q0 52 14.5 95t40.5 74t62.5 48.5t80.5 17.5q45 0 79 -15.5t57 -44t34.5 -68.5t11.5 -89v-27h-306q1 -39 13.5 -67.5t32.5 -47.5t46.5 -28t56.5 -9q38 0 67 9.5t59 32.5v-69
q-11 -8 -22 -14.5t-24 -15.5q-23 -19 -41.5 -47t-18.5 -55q0 -30 23 -30q10 0 18 3.5t19 11.5v-50q-11 -8 -23.5 -13.5t-28.5 -5.5q-31 0 -49 18t-18 50zM234 389q-45 0 -77.5 -30t-43.5 -91h229q-1 24 -8 46t-20 38.5t-33 26.5t-47 10z" />
    <glyph glyph-name="Ecaron" unicode="&#x11a;" horiz-adv-x="515" 
d="M464 544h-313v-194h284v-70h-284v-209h313v-71h-391v614h391v-70zM214 787l59 -71l59 71h68l-92 -121h-70l-92 121h68z" />
    <glyph glyph-name="ecaron" unicode="&#x11b;" horiz-adv-x="450" 
d="M109 209q1 -39 13 -67.5t32 -47t47 -28t57 -9.5q38 0 67 9.5t59 32.5v-69q-27 -21 -61 -30t-74 -9q-48 0 -87.5 16t-67.5 45t-43.5 71t-15.5 95q0 52 14.5 95t40.5 74t62.5 48.5t80.5 17.5q45 0 79 -15.5t57 -44t34.5 -68.5t11.5 -89v-27h-306zM234 389
q-45 0 -77.5 -29.5t-43.5 -91.5h229q-1 24 -8 46t-20 38.5t-33 26.5t-47 10zM203 510l-92 136h65l62 -87l62 87h65l-92 -136h-70z" />
    <glyph glyph-name="Gcircumflex" unicode="&#x11c;" horiz-adv-x="593" 
d="M326 61q42 0 76.5 11t64.5 36v145h-135v66h208v-240q-45 -49 -102 -68.5t-114 -19.5q-64 0 -117 22.5t-90.5 64t-58.5 100t-21 129.5q0 72 22.5 130t62 99.5t94 64t117.5 22.5q54 0 99.5 -14.5t77.5 -40.5v-84q-39 35 -82.5 51.5t-94.5 16.5q-48 0 -88 -17.5t-68.5 -49.5
t-44.5 -77.5t-16 -100.5q0 -56 15 -101t42 -77.5t66 -50t87 -17.5zM390 669l-59 71l-59 -71h-68l92 122h70l92 -122h-68z" />
    <glyph glyph-name="gcircumflex" unicode="&#x11d;" horiz-adv-x="499" 
d="M357 59q-17 -23 -49.5 -41.5t-74.5 -18.5q-49 0 -86 18.5t-62 50t-37.5 72.5t-12.5 86t12.5 86t37.5 72.5t62 50t86 18.5q42 0 74.5 -18t49.5 -41v50h76v-409q0 -58 -19 -99t-50 -66.5t-69.5 -37.5t-78.5 -12q-43 0 -80 11t-63 29v83q33 -31 68.5 -43t74.5 -12
q30 0 55.5 9t44.5 26.5t30 44t11 62.5v29zM357 317q-17 32 -47 50.5t-66 18.5q-63 0 -98 -45t-35 -115q0 -69 35 -114t98 -45q36 0 66 18.5t47 50.5v181zM321 509l-62 88l-62 -88h-65l92 136h70l92 -136h-65z" />
    <glyph glyph-name="Gbreve" unicode="&#x11e;" horiz-adv-x="593" 
d="M326 61q42 0 76.5 11t64.5 36v145h-135v66h208v-240q-45 -49 -102 -68.5t-114 -19.5q-64 0 -117 22.5t-90.5 64t-58.5 100t-21 129.5q0 72 22.5 130t62 99.5t94 64t117.5 22.5q54 0 99.5 -14.5t77.5 -40.5v-84q-39 35 -82.5 51.5t-94.5 16.5q-48 0 -88 -17.5t-68.5 -49.5
t-44.5 -77.5t-16 -100.5q0 -56 15 -101t42 -77.5t66 -50t87 -17.5zM331 666q-51 0 -83 30.5t-32 89.5h57q0 -32 16 -48t42 -16t42.5 16t16.5 48h57q0 -59 -31.5 -89.5t-84.5 -30.5z" />
    <glyph glyph-name="gbreve" unicode="&#x11f;" horiz-adv-x="499" 
d="M357 59q-17 -23 -49.5 -41.5t-74.5 -18.5q-49 0 -86 18.5t-62 50t-37.5 72.5t-12.5 86t12.5 86t37.5 72.5t62 50t86 18.5q42 0 74.5 -18t49.5 -41v50h76v-409q0 -58 -19 -99t-50 -66.5t-69.5 -37.5t-78.5 -12q-43 0 -80 11t-63 29v83q33 -31 68.5 -43t74.5 -12
q30 0 55.5 9t44.5 26.5t30 44t11 62.5v29zM357 317q-17 32 -47 50.5t-66 18.5q-63 0 -98 -45t-35 -115q0 -69 35 -114t98 -45q36 0 66 18.5t47 50.5v181zM259 500q-51 0 -82.5 32.5t-31.5 95.5h57q0 -34 14.5 -53.5t42.5 -19.5t42.5 19.5t14.5 53.5h57q0 -63 -31.5 -95.5
t-82.5 -32.5z" />
    <glyph glyph-name="Gdotaccent" unicode="&#x120;" horiz-adv-x="593" 
d="M326 61q42 0 76.5 11t64.5 36v145h-135v66h208v-240q-45 -49 -102 -68.5t-114 -19.5q-64 0 -117 22.5t-90.5 64t-58.5 100t-21 129.5q0 72 22.5 130t62 99.5t94 64t117.5 22.5q54 0 99.5 -14.5t77.5 -40.5v-84q-39 35 -82.5 51.5t-94.5 16.5q-48 0 -88 -17.5t-68.5 -49.5
t-44.5 -77.5t-16 -100.5q0 -56 15 -101t42 -77.5t66 -50t87 -17.5zM376 721q0 -20 -14 -34t-34 -14t-34 14t-14 34t14 34.5t34 14.5t34 -14.5t14 -34.5z" />
    <glyph glyph-name="gdotaccent" unicode="&#x121;" horiz-adv-x="499" 
d="M357 59q-17 -23 -49.5 -41.5t-74.5 -18.5q-49 0 -86 18.5t-62 50t-37.5 72.5t-12.5 86t12.5 86t37.5 72.5t62 50t86 18.5q42 0 74.5 -18t49.5 -41v50h76v-409q0 -58 -19 -99t-50 -66.5t-69.5 -37.5t-78.5 -12q-43 0 -80 11t-63 29v83q33 -31 68.5 -43t74.5 -12
q30 0 55.5 9t44.5 26.5t30 44t11 62.5v29zM357 317q-17 32 -47 50.5t-66 18.5q-63 0 -98 -45t-35 -115q0 -69 35 -114t98 -45q36 0 66 18.5t47 50.5v181zM307 578q0 -20 -14 -34t-34 -14t-34 14t-14 34t14 34t34 14t34 -14t14 -34z" />
    <glyph glyph-name="Gcommaaccent" unicode="&#x122;" horiz-adv-x="593" 
d="M326 61q42 0 76.5 11t64.5 36v145h-135v66h208v-240q-45 -49 -102 -68.5t-114 -19.5q-64 0 -117 22.5t-90.5 64t-58.5 100t-21 129.5q0 72 22.5 130t62 99.5t94 64t117.5 22.5q54 0 99.5 -14.5t77.5 -40.5v-84q-39 35 -82.5 51.5t-94.5 16.5q-48 0 -88 -17.5t-68.5 -49.5
t-44.5 -77.5t-16 -100.5q0 -56 15 -101t42 -77.5t66 -50t87 -17.5zM325 -137q-17 2 -28.5 14t-11.5 30q0 21 14.5 34.5t35.5 13.5q20 0 34.5 -13.5t14.5 -36.5q0 -17 -7 -30.5t-15 -26.5l-29 -49h-47z" />
    <glyph glyph-name="gcommaaccent" unicode="&#x123;" horiz-adv-x="499" 
d="M357 59q-17 -23 -49.5 -41.5t-74.5 -18.5q-49 0 -86 18.5t-62 50t-37.5 72.5t-12.5 86t12.5 86t37.5 72.5t62 50t86 18.5q42 0 74.5 -18t49.5 -41v50h76v-409q0 -58 -19 -99t-50 -66.5t-69.5 -37.5t-78.5 -12q-43 0 -80 11t-63 29v83q33 -31 68.5 -43t74.5 -12
q30 0 55.5 9t44.5 26.5t30 44t11 62.5v29zM357 317q-17 32 -47 50.5t-66 18.5q-63 0 -98 -45t-35 -115q0 -69 35 -114t98 -45q36 0 66 18.5t47 50.5v181zM266 615q18 -2 29.5 -14t11.5 -32q0 -21 -14.5 -34.5t-36.5 -13.5q-21 0 -35.5 14t-14.5 37q0 17 6.5 31t15.5 28
l29 49h49z" />
    <glyph glyph-name="Hcircumflex" unicode="&#x124;" horiz-adv-x="651" 
d="M578 0h-79v280h-347v-280h-79v614h79v-263h347v263h79v-614zM384 669l-59 71l-59 -71h-68l92 122h70l92 -122h-68z" />
    <glyph glyph-name="hcircumflex" unicode="&#x125;" horiz-adv-x="489" 
d="M142 650v-262q20 26 54 45.5t77 19.5q76 0 116 -44.5t40 -117.5v-291h-76v279q0 47 -23.5 76t-74.5 29q-39 0 -70 -23.5t-43 -59.5v-301h-75v650h75zM307 682l-59 71l-59 -71h-68l92 122h70l92 -122h-68z" />
    <glyph glyph-name="Hbar" unicode="&#x126;" horiz-adv-x="679" 
d="M87 496v118h79v-118h347v118h79v-118h55v-66h-55v-430h-79v244h-347v-244h-79v430h-55v66h55zM513 430h-347v-120h347v120z" />
    <glyph glyph-name="hbar" unicode="&#x127;" horiz-adv-x="489" 
d="M67 565v85h75v-85h108v-54h-108v-123q20 26 54 45.5t77 19.5q76 0 116 -44.5t40 -117.5v-291h-76v279q0 47 -23.5 76t-74.5 29q-39 0 -70 -23.5t-43 -59.5v-301h-75v511h-57v54h57z" />
    <glyph glyph-name="Itilde" unicode="&#x128;" horiz-adv-x="225" 
d="M73 0v614h79v-614h-79zM248 784q0 -54 -19 -86.5t-57 -32.5q-18 0 -32.5 8.5t-27.5 19t-25 19.5t-25 9q-34 0 -34 -53h-49q0 54 19 86.5t57 32.5q19 0 33.5 -9t27 -19.5t24.5 -19t26 -8.5q32 0 34 53h48z" />
    <glyph glyph-name="itilde" unicode="&#x129;" horiz-adv-x="209" 
d="M214 633q0 -54 -16.5 -86t-47.5 -32q-15 0 -26.5 8.5t-21 19t-18.5 19.5t-18 9q-25 0 -27 -53h-46q0 54 16.5 86t47.5 32q15 0 26.5 -9t21.5 -19.5t19 -19t18 -8.5q24 0 26 53h46zM67 0v444h75v-444h-75z" />
    <glyph glyph-name="Imacron" unicode="&#x12a;" horiz-adv-x="225" 
d="M73 0v614h79v-614h-79zM220 732v-61h-213v61h213z" />
    <glyph glyph-name="imacron" unicode="&#x12b;" horiz-adv-x="209" 
d="M193 591v-61h-177v61h177zM67 0v444h75v-444h-75z" />
    <glyph glyph-name="Ibreve" unicode="&#x12c;" horiz-adv-x="225" 
d="M73 0v614h79v-614h-79zM113 666q-51 0 -83 30.5t-32 89.5h57q0 -32 16 -48t42 -16t42.5 16t16.5 48h57q0 -59 -31.5 -89.5t-84.5 -30.5z" />
    <glyph glyph-name="ibreve" unicode="&#x12d;" horiz-adv-x="209" 
d="M105 500q-45 0 -73.5 32.5t-28.5 95.5h55q0 -34 11 -53.5t36 -19.5q24 0 35 19.5t11 53.5h55q0 -63 -28 -95.5t-73 -32.5zM67 0v444h75v-444h-75z" />
    <glyph glyph-name="Iogonek" unicode="&#x12e;" horiz-adv-x="225" 
d="M152 0q-15 -24 -24.5 -40.5t-15.5 -28t-8 -20t-2 -17.5q0 -13 6.5 -19.5t16.5 -6.5t18 3.5t19 11.5v-50q-11 -8 -23.5 -13.5t-28.5 -5.5q-32 0 -49 18t-17 48q0 28 14.5 55t37.5 65h-23v614h79v-614z" />
    <glyph glyph-name="iogonek" unicode="&#x12f;" horiz-adv-x="209" 
d="M142 0q-15 -24 -24.5 -40.5t-15 -28t-7.5 -20t-2 -17.5q0 -26 23 -26q10 0 18 3.5t19 11.5v-50q-11 -8 -24 -13.5t-28 -5.5q-33 0 -50 18t-17 48q0 28 14.5 55t37.5 65h-19v444h75v-444zM152 578q0 -20 -14 -34t-34 -14t-34 14t-14 34t14 34t34 14t34 -14t14 -34z" />
    <glyph glyph-name="Idotaccent" unicode="&#x130;" horiz-adv-x="225" 
d="M73 0v614h79v-614h-79zM161 721q0 -20 -14 -34t-34 -14t-34 14t-14 34t14 34.5t34 14.5t34 -14.5t14 -34.5z" />
    <glyph glyph-name="dotlessi" unicode="&#x131;" horiz-adv-x="209" 
d="M67 0v444h75v-444h-75z" />
    <glyph glyph-name="IJ" unicode="&#x132;" horiz-adv-x="616" 
d="M73 0v614h79v-614h-79zM254 107q29 -21 56.5 -32.5t61.5 -11.5q55 0 79.5 33.5t24.5 110.5v407h79v-410q0 -112 -46 -162.5t-135 -50.5q-38 0 -69 11t-51 24v81z" />
    <glyph glyph-name="ij" unicode="&#x133;" horiz-adv-x="416" 
d="M351 -51q0 -63 -33 -95.5t-96 -32.5q-7 0 -16.5 1t-15.5 3v64q5 -1 12 -2t14 -1q29 0 44.5 15t15.5 53v490h75v-495zM361 578q0 -20 -14 -34t-34 -14t-34 14t-14 34t14 34t34 14t34 -14t14 -34zM67 0v444h75v-444h-75zM153 578q0 -20 -14 -34t-34 -14t-34 14t-14 34
t14 34t34 14t34 -14t14 -34z" />
    <glyph glyph-name="Jcircumflex" unicode="&#x134;" horiz-adv-x="391" 
d="M29 107q29 -21 56.5 -32.5t61.5 -11.5q55 0 79.5 33.5t24.5 110.5v407h79v-410q0 -112 -46 -162.5t-135 -50.5q-38 0 -69 11t-51 24v81zM350 669l-59 71l-59 -71h-68l92 122h70l92 -122h-68z" />
    <glyph glyph-name="jcircumflex" unicode="&#x135;" horiz-adv-x="207" 
d="M149 509l-45 85l-45 -85h-63l74 136h69l74 -136h-64zM142 -51q0 -63 -33 -95.5t-96 -32.5q-7 0 -16.5 1t-15.5 3v64q5 -1 12 -2t14 -1q29 0 44.5 15t15.5 53v490h75v-495z" />
    <glyph glyph-name="Kcommaaccent" unicode="&#x136;" horiz-adv-x="553" 
d="M429 614h99l-302 -294l311 -320h-102l-283 289v-289h-79v614h79v-273zM255 -137q-17 2 -28.5 14t-11.5 30q0 21 14.5 34.5t35.5 13.5q20 0 34.5 -13.5t14.5 -36.5q0 -17 -7 -30.5t-15 -26.5l-29 -49h-47z" />
    <glyph glyph-name="kcommaaccent" unicode="&#x137;" horiz-adv-x="445" 
d="M347 0l-205 220v-220h-75v650h75v-393l197 187h97l-218 -203l222 -241h-93zM219 -137q-17 2 -28.5 14t-11.5 30q0 21 14.5 34.5t35.5 13.5q20 0 34.5 -13.5t14.5 -36.5q0 -17 -7 -30.5t-15 -26.5l-29 -49h-47z" />
    <glyph glyph-name="kgreenlandic" unicode="&#x138;" horiz-adv-x="445" 
d="M347 0l-205 220v-220h-75v444h75v-187l197 187h97l-218 -203l222 -241h-93z" />
    <glyph glyph-name="Lacute" unicode="&#x139;" horiz-adv-x="504" 
d="M152 614v-543h313v-71h-392v614h79zM161 785h87l-91 -117h-76z" />
    <glyph glyph-name="lacute" unicode="&#x13a;" horiz-adv-x="209" 
d="M67 0v650h75v-650h-75zM147 812h87l-91 -117h-76z" />
    <glyph glyph-name="Lcommaaccent" unicode="&#x13b;" horiz-adv-x="504" 
d="M270 -137q-17 2 -28.5 14t-11.5 30q0 21 14.5 34.5t35.5 13.5q20 0 34.5 -13.5t14.5 -36.5q0 -17 -7 -30.5t-15 -26.5l-29 -49h-47zM152 614v-543h313v-71h-392v614h79z" />
    <glyph glyph-name="lcommaaccent" unicode="&#x13c;" horiz-adv-x="209" 
d="M96 -137q-17 2 -28.5 14t-11.5 30q0 21 14.5 34.5t35.5 13.5q20 0 34.5 -13.5t14.5 -36.5q0 -17 -7 -30.5t-15 -26.5l-29 -49h-47zM67 0v650h75v-650h-75z" />
    <glyph glyph-name="Lcaron" unicode="&#x13d;" horiz-adv-x="504" 
d="M152 614v-543h313v-71h-392v614h79zM294 615h60l-33 -164h-60z" />
    <glyph glyph-name="lcaron" unicode="&#x13e;" horiz-adv-x="209" 
d="M230 650h60l-33 -164h-60zM67 0v650h75v-650h-75z" />
    <glyph glyph-name="Ldot" unicode="&#x13f;" horiz-adv-x="504" 
d="M412 307q0 -20 -14 -34t-34 -14t-34 14t-14 34t14 34t34 14t34 -14t14 -34zM152 614v-543h313v-71h-392v614h79z" />
    <glyph glyph-name="ldot" unicode="&#x140;" horiz-adv-x="332" 
d="M317 325q0 -20 -14 -34t-34 -14t-34 14t-14 34t14 34t34 14t34 -14t14 -34zM67 0v650h75v-650h-75z" />
    <glyph glyph-name="Lslash" unicode="&#x141;" horiz-adv-x="523" 
d="M92 324v290h79v-260l154 62v-72l-154 -63v-210h313v-71h-392v251l-62 -25v73z" />
    <glyph glyph-name="lslash" unicode="&#x142;" horiz-adv-x="246" 
d="M221 453v-68l-60 -39v-346h-75v310l-56 -35v67l56 36v272h75v-236z" />
    <glyph glyph-name="Nacute" unicode="&#x143;" horiz-adv-x="623" 
d="M492 0l-343 488v-488h-76v614h75l327 -467v467h75v-614h-58zM347 785h87l-91 -117h-76z" />
    <glyph glyph-name="nacute" unicode="&#x144;" horiz-adv-x="489" 
d="M142 444v-56q20 26 54 45.5t77 19.5q76 0 116 -44.5t40 -117.5v-291h-76v279q0 47 -23.5 76t-74.5 29q-39 0 -70 -23.5t-43 -59.5v-301h-75v444h75zM291 650h78l-89 -134h-69z" />
    <glyph glyph-name="Ncommaaccent" unicode="&#x145;" horiz-adv-x="623" 
d="M492 0l-343 488v-488h-76v614h75l327 -467v467h75v-614h-58zM305 -137q-17 2 -28.5 14t-11.5 30q0 21 14.5 34.5t35.5 13.5q20 0 34.5 -13.5t14.5 -36.5q0 -17 -7 -30.5t-15 -26.5l-29 -49h-47z" />
    <glyph glyph-name="ncommaaccent" unicode="&#x146;" horiz-adv-x="489" 
d="M244 -137q-17 2 -28.5 14t-11.5 30q0 21 14.5 34.5t35.5 13.5q20 0 34.5 -13.5t14.5 -36.5q0 -17 -7 -30.5t-15 -26.5l-29 -49h-47zM142 444v-56q20 26 54 45.5t77 19.5q76 0 116 -44.5t40 -117.5v-291h-76v279q0 47 -23.5 76t-74.5 29q-39 0 -70 -23.5t-43 -59.5v-301
h-75v444h75z" />
    <glyph glyph-name="Ncaron" unicode="&#x147;" horiz-adv-x="623" 
d="M492 0l-343 488v-488h-76v614h75l327 -467v467h75v-614h-58zM253 787l59 -71l59 71h68l-92 -121h-70l-92 121h68z" />
    <glyph glyph-name="ncaron" unicode="&#x148;" horiz-adv-x="489" 
d="M142 444v-56q20 26 54 45.5t77 19.5q76 0 116 -44.5t40 -117.5v-291h-76v279q0 47 -23.5 76t-74.5 29q-39 0 -70 -23.5t-43 -59.5v-301h-75v444h75zM216 510l-92 136h65l62 -87l62 87h65l-92 -136h-70z" />
    <glyph glyph-name="Eng" unicode="&#x14a;" horiz-adv-x="623" 
d="M266 -81q25 -17 49 -25t53 -8q54 0 80 31.5t27 107.5l-326 463v-488h-76v614h75l327 -467v467h75v-587q0 -112 -45 -163t-133 -51q-32 0 -59 8.5t-47 19.5v78z" />
    <glyph glyph-name="eng" unicode="&#x14b;" horiz-adv-x="489" 
d="M353 279q0 47 -23.5 76t-74.5 29q-39 0 -70 -23.5t-43 -59.5v-301h-75v444h75v-56q20 26 54 45.5t77 19.5q76 0 116 -44.5t40 -117.5v-342q0 -63 -33 -95.5t-96 -32.5q-7 0 -17 1t-15 3v64q5 -1 11.5 -2t13.5 -1q29 0 44.5 15t15.5 53v325z" />
    <glyph glyph-name="Omacron" unicode="&#x14c;" horiz-adv-x="629" 
d="M592 307q0 -69 -20.5 -127t-57.5 -100t-88 -65.5t-112 -23.5q-60 0 -111 23.5t-88 65.5t-57.5 100t-20.5 127q0 70 20.5 128t57.5 100t88 65t111 23q61 0 112 -23t88 -65t57.5 -100t20.5 -128zM513 307q0 54 -14.5 99t-40.5 77.5t-62.5 50.5t-81.5 18q-44 0 -80.5 -18
t-62.5 -50.5t-40.5 -77.5t-14.5 -99t14.5 -99t40.5 -77.5t62.5 -50.5t80.5 -18q45 0 81.5 18t62.5 50.5t40.5 77.5t14.5 99zM421 732v-61h-213v61h213z" />
    <glyph glyph-name="omacron" unicode="&#x14d;" horiz-adv-x="478" 
d="M443 222q0 -51 -15 -93.5t-42 -73t-64.5 -47.5t-82.5 -17q-46 0 -83.5 17t-64.5 47.5t-41.5 73t-14.5 93.5t14.5 93.5t41.5 73t64.5 47.5t83.5 17q45 0 82.5 -17t64.5 -47.5t42 -73t15 -93.5zM367 222q0 73 -34 119t-94 46t-94 -46t-34 -119t34 -119t94 -46t94 46t34 119
zM347 591v-61h-213v61h213z" />
    <glyph glyph-name="Obreve" unicode="&#x14e;" horiz-adv-x="629" 
d="M592 307q0 -69 -20.5 -127t-57.5 -100t-88 -65.5t-112 -23.5q-60 0 -111 23.5t-88 65.5t-57.5 100t-20.5 127q0 70 20.5 128t57.5 100t88 65t111 23q61 0 112 -23t88 -65t57.5 -100t20.5 -128zM513 307q0 54 -14.5 99t-40.5 77.5t-62.5 50.5t-81.5 18q-44 0 -80.5 -18
t-62.5 -50.5t-40.5 -77.5t-14.5 -99t14.5 -99t40.5 -77.5t62.5 -50.5t80.5 -18q45 0 81.5 18t62.5 50.5t40.5 77.5t14.5 99zM314 666q-51 0 -83 30.5t-32 89.5h57q0 -32 16 -48t42 -16t42.5 16t16.5 48h57q0 -59 -31.5 -89.5t-84.5 -30.5z" />
    <glyph glyph-name="obreve" unicode="&#x14f;" horiz-adv-x="478" 
d="M443 222q0 -51 -15 -93.5t-42 -73t-64.5 -47.5t-82.5 -17q-46 0 -83.5 17t-64.5 47.5t-41.5 73t-14.5 93.5t14.5 93.5t41.5 73t64.5 47.5t83.5 17q45 0 82.5 -17t64.5 -47.5t42 -73t15 -93.5zM367 222q0 73 -34 119t-94 46t-94 -46t-34 -119t34 -119t94 -46t94 46t34 119
zM240 500q-51 0 -82.5 32.5t-31.5 95.5h57q0 -34 14.5 -53.5t42.5 -19.5t42.5 19.5t14.5 53.5h57q0 -63 -31.5 -95.5t-82.5 -32.5z" />
    <glyph glyph-name="Ohungarumlaut" unicode="&#x150;" horiz-adv-x="629" 
d="M592 307q0 -69 -20.5 -127t-57.5 -100t-88 -65.5t-112 -23.5q-60 0 -111 23.5t-88 65.5t-57.5 100t-20.5 127q0 70 20.5 128t57.5 100t88 65t111 23q61 0 112 -23t88 -65t57.5 -100t20.5 -128zM513 307q0 54 -14.5 99t-40.5 77.5t-62.5 50.5t-81.5 18q-44 0 -80.5 -18
t-62.5 -50.5t-40.5 -77.5t-14.5 -99t14.5 -99t40.5 -77.5t62.5 -50.5t80.5 -18q45 0 81.5 18t62.5 50.5t40.5 77.5t14.5 99zM292 785h66l-68 -117h-65zM414 785h67l-68 -117h-65z" />
    <glyph glyph-name="ohungarumlaut" unicode="&#x151;" horiz-adv-x="478" 
d="M443 222q0 -51 -15 -93.5t-42 -73t-64.5 -47.5t-82.5 -17q-46 0 -83.5 17t-64.5 47.5t-41.5 73t-14.5 93.5t14.5 93.5t41.5 73t64.5 47.5t83.5 17q45 0 82.5 -17t64.5 -47.5t42 -73t15 -93.5zM367 222q0 73 -34 119t-94 46t-94 -46t-34 -119t34 -119t94 -46t94 46t34 119
zM210 650h65l-68 -134h-63zM330 650h64l-68 -134h-63z" />
    <glyph glyph-name="OE" unicode="&#x152;" horiz-adv-x="830" 
d="M482 544v-194h268v-70h-268v-209h298v-71h-445q-68 0 -123 21.5t-94 61.5t-60 97t-21 127t21 127t60 97t94 61.5t123 21.5h445v-70h-298zM405 544h-68q-53 0 -94 -17t-69 -47.5t-43 -74.5t-15 -98t15 -97.5t43 -74.5t69 -47.5t94 -16.5h68v473z" />
    <glyph glyph-name="oe" unicode="&#x153;" horiz-adv-x="778" 
d="M239 453q54 0 96.5 -24.5t68.5 -66.5q25 42 65 66.5t92 24.5q45 0 79 -15.5t57 -44t34.5 -68.5t11.5 -89v-27h-306q1 -39 13 -67.5t32 -47t47 -28t57 -9.5q38 0 67 9.5t59 32.5v-69q-26 -21 -60 -30t-75 -9q-58 0 -102.5 23.5t-71.5 65.5q-26 -42 -68 -65.5t-96 -23.5
q-46 0 -83.5 17t-64.5 47.5t-41.5 73t-14.5 93.5t14.5 93.5t41.5 73t64.5 47.5t83.5 17zM367 222q0 73 -34 119t-94 46t-94 -46t-34 -119t34 -119t94 -46t94 46t34 119zM562 389q-44 0 -77 -29.5t-44 -91.5h230q-1 24 -8 46t-20.5 38.5t-33.5 26.5t-47 10z" />
    <glyph glyph-name="Racute" unicode="&#x154;" horiz-adv-x="552" 
d="M152 0h-79v614h225q93 0 148.5 -45.5t55.5 -132.5q0 -77 -42 -119.5t-115 -53.5l182 -263h-90l-176 260h-109v-260zM296 327q61 0 94.5 29t33.5 80t-33.5 80t-94.5 29h-144v-218h144zM307 785h87l-91 -117h-76z" />
    <glyph glyph-name="racute" unicode="&#x155;" horiz-adv-x="321" 
d="M295 369q-9 6 -22.5 9t-27.5 3q-35 0 -63.5 -22t-39.5 -61v-298h-75v444h75v-58q14 29 43.5 48t66.5 19q29 0 43 -7v-77zM222 650h78l-89 -134h-69z" />
    <glyph glyph-name="Rcommaaccent" unicode="&#x156;" horiz-adv-x="552" 
d="M152 0h-79v614h225q93 0 148.5 -45.5t55.5 -132.5q0 -77 -42 -119.5t-115 -53.5l182 -263h-90l-176 260h-109v-260zM296 327q61 0 94.5 29t33.5 80t-33.5 80t-94.5 29h-144v-218h144zM264 -137q-17 2 -28.5 14t-11.5 30q0 21 14.5 34.5t35.5 13.5q20 0 34.5 -13.5
t14.5 -36.5q0 -17 -7 -30.5t-15 -26.5l-29 -49h-47z" />
    <glyph glyph-name="rcommaaccent" unicode="&#x157;" horiz-adv-x="321" 
d="M295 369q-9 6 -22.5 9t-27.5 3q-35 0 -63.5 -22t-39.5 -61v-298h-75v444h75v-58q14 29 43.5 48t66.5 19q29 0 43 -7v-77zM94 -137q-17 2 -28.5 14t-11.5 30q0 21 14.5 34.5t35.5 13.5q20 0 34.5 -13.5t14.5 -36.5q0 -17 -7 -30.5t-15 -26.5l-29 -49h-47z" />
    <glyph glyph-name="Rcaron" unicode="&#x158;" horiz-adv-x="552" 
d="M152 0h-79v614h225q93 0 148.5 -45.5t55.5 -132.5q0 -77 -42 -119.5t-115 -53.5l182 -263h-90l-176 260h-109v-260zM296 327q61 0 94.5 29t33.5 80t-33.5 80t-94.5 29h-144v-218h144zM212 787l59 -71l59 71h68l-92 -121h-70l-92 121h68z" />
    <glyph glyph-name="rcaron" unicode="&#x159;" horiz-adv-x="321" 
d="M295 369q-9 6 -22.5 9t-27.5 3q-35 0 -63.5 -22t-39.5 -61v-298h-75v444h75v-58q14 29 43.5 48t66.5 19q29 0 43 -7v-77zM147 510l-92 136h65l62 -87l62 87h65l-92 -136h-70z" />
    <glyph glyph-name="Sacute" unicode="&#x15a;" horiz-adv-x="481" 
d="M41 133q84 -72 193 -72q60 0 95.5 24.5t35.5 72.5q0 40 -24.5 61.5t-73.5 41.5l-90 35q-27 10 -52 24t-44 33.5t-30.5 46t-11.5 62.5q0 40 16 70t43 50t62.5 30.5t75.5 10.5q51 0 96 -13t80 -37v-83q-37 29 -79 46.5t-96 17.5q-51 0 -86 -22.5t-35 -68.5q0 -39 24.5 -59
t67.5 -37l97 -38q71 -27 103.5 -66.5t32.5 -103.5q0 -39 -15.5 -70.5t-43.5 -53t-65.5 -33t-82.5 -11.5q-63 0 -112 16t-81 41v85zM283 785h87l-91 -117h-76z" />
    <glyph glyph-name="sacute" unicode="&#x15b;" horiz-adv-x="393" 
d="M41 115q31 -29 68 -44.5t78 -15.5q37 0 64.5 14.5t27.5 47.5q0 25 -17.5 39.5t-46.5 24.5l-61 21q-51 17 -81.5 44.5t-30.5 81.5q0 29 12 52.5t33.5 39.5t50 24.5t61.5 8.5q76 0 132 -39v-78q-28 23 -59.5 38t-72.5 15q-35 0 -59.5 -14.5t-24.5 -43.5q0 -27 17 -39.5
t49 -23.5l68 -23q51 -17 77.5 -47t26.5 -78q0 -31 -13 -55t-35.5 -40.5t-52.5 -25t-65 -8.5q-44 0 -82.5 12t-63.5 32v80zM245 650h78l-89 -134h-69z" />
    <glyph glyph-name="Scircumflex" unicode="&#x15c;" horiz-adv-x="481" 
d="M41 133q84 -72 193 -72q60 0 95.5 24.5t35.5 72.5q0 40 -24.5 61.5t-73.5 41.5l-90 35q-27 10 -52 24t-44 33.5t-30.5 46t-11.5 62.5q0 40 16 70t43 50t62.5 30.5t75.5 10.5q51 0 96 -13t80 -37v-83q-37 29 -79 46.5t-96 17.5q-51 0 -86 -22.5t-35 -68.5q0 -39 24.5 -59
t67.5 -37l97 -38q71 -27 103.5 -66.5t32.5 -103.5q0 -39 -15.5 -70.5t-43.5 -53t-65.5 -33t-82.5 -11.5q-63 0 -112 16t-81 41v85zM307 669l-59 71l-59 -71h-68l92 122h70l92 -122h-68z" />
    <glyph glyph-name="scircumflex" unicode="&#x15d;" horiz-adv-x="393" 
d="M41 115q31 -29 68 -44.5t78 -15.5q37 0 64.5 14.5t27.5 47.5q0 25 -17.5 39.5t-46.5 24.5l-61 21q-51 17 -81.5 44.5t-30.5 81.5q0 29 12 52.5t33.5 39.5t50 24.5t61.5 8.5q76 0 132 -39v-78q-28 23 -59.5 38t-72.5 15q-35 0 -59.5 -14.5t-24.5 -43.5q0 -27 17 -39.5
t49 -23.5l68 -23q51 -17 77.5 -47t26.5 -78q0 -31 -13 -55t-35.5 -40.5t-52.5 -25t-65 -8.5q-44 0 -82.5 12t-63.5 32v80zM267 509l-62 88l-62 -88h-65l92 136h70l92 -136h-65z" />
    <glyph glyph-name="Scedilla" unicode="&#x15e;" horiz-adv-x="481" 
d="M41 133q84 -72 193 -72q60 0 95.5 24.5t35.5 72.5q0 40 -24.5 61.5t-73.5 41.5l-90 35q-27 10 -52 24t-44 33.5t-30.5 46t-11.5 62.5q0 40 16 70t43 50t62.5 30.5t75.5 10.5q51 0 96 -13t80 -37v-83q-37 29 -79 46.5t-96 17.5q-51 0 -86 -22.5t-35 -68.5q0 -39 24.5 -59
t67.5 -37l97 -38q71 -27 103.5 -66.5t32.5 -103.5q0 -39 -15.5 -70.5t-43.5 -53t-65.5 -33t-82.5 -11.5q-63 0 -112 16t-81 41v85zM204 -51h74l-69 -132h-71z" />
    <glyph glyph-name="scedilla" unicode="&#x15f;" horiz-adv-x="393" 
d="M41 115q31 -29 68 -44.5t78 -15.5q37 0 64.5 14.5t27.5 47.5q0 25 -17.5 39.5t-46.5 24.5l-61 21q-51 17 -81.5 44.5t-30.5 81.5q0 29 12 52.5t33.5 39.5t50 24.5t61.5 8.5q76 0 132 -39v-78q-28 23 -59.5 38t-72.5 15q-35 0 -59.5 -14.5t-24.5 -43.5q0 -27 17 -39.5
t49 -23.5l68 -23q51 -17 77.5 -47t26.5 -78q0 -31 -13 -55t-35.5 -40.5t-52.5 -25t-65 -8.5q-44 0 -82.5 12t-63.5 32v80zM157 -51h74l-69 -132h-71z" />
    <glyph glyph-name="Scaron" unicode="&#x160;" horiz-adv-x="481" 
d="M41 133q84 -72 193 -72q60 0 95.5 24.5t35.5 72.5q0 40 -24.5 61.5t-73.5 41.5l-90 35q-27 10 -52 24t-44 33.5t-30.5 46t-11.5 62.5q0 40 16 70t43 50t62.5 30.5t75.5 10.5q51 0 96 -13t80 -37v-83q-37 29 -79 46.5t-96 17.5q-51 0 -86 -22.5t-35 -68.5q0 -39 24.5 -59
t67.5 -37l97 -38q71 -27 103.5 -66.5t32.5 -103.5q0 -39 -15.5 -70.5t-43.5 -53t-65.5 -33t-82.5 -11.5q-63 0 -112 16t-81 41v85zM189 787l59 -71l59 71h68l-92 -121h-70l-92 121h68z" />
    <glyph glyph-name="scaron" unicode="&#x161;" horiz-adv-x="393" 
d="M41 115q31 -29 68 -44.5t78 -15.5q37 0 64.5 14.5t27.5 47.5q0 25 -17.5 39.5t-46.5 24.5l-61 21q-51 17 -81.5 44.5t-30.5 81.5q0 29 12 52.5t33.5 39.5t50 24.5t61.5 8.5q76 0 132 -39v-78q-28 23 -59.5 38t-72.5 15q-35 0 -59.5 -14.5t-24.5 -43.5q0 -27 17 -39.5
t49 -23.5l68 -23q51 -17 77.5 -47t26.5 -78q0 -31 -13 -55t-35.5 -40.5t-52.5 -25t-65 -8.5q-44 0 -82.5 12t-63.5 32v80zM170 510l-92 136h65l62 -87l62 87h65l-92 -136h-70z" />
    <glyph glyph-name="Tcedilla" unicode="&#x162;" horiz-adv-x="567" 
d="M537 614v-70h-214v-544h-79v544h-214v70h507zM277 -137q-17 2 -28.5 14t-11.5 30q0 21 14.5 34.5t35.5 13.5q20 0 34.5 -13.5t14.5 -36.5q0 -17 -7 -30.5t-15 -26.5l-29 -49h-47z" />
    <glyph glyph-name="tcedilla" unicode="&#x163;" horiz-adv-x="318" 
d="M144 -137q-17 2 -28.5 14t-11.5 30q0 21 14.5 34.5t35.5 13.5q20 0 34.5 -13.5t14.5 -36.5q0 -17 -7 -30.5t-15 -26.5l-29 -49h-47zM116 0v380h-93v64h93v117h75v-117h103v-64h-103v-380h-75z" />
    <glyph glyph-name="Tcaron" unicode="&#x164;" horiz-adv-x="567" 
d="M537 614v-70h-214v-544h-79v544h-214v70h507zM225 787l59 -71l59 71h68l-92 -121h-70l-92 121h68z" />
    <glyph glyph-name="tcaron" unicode="&#x165;" horiz-adv-x="318" 
d="M116 0v380h-93v64h93v117h75v-117h103v-64h-103v-380h-75zM276 660h60l-33 -164h-60z" />
    <glyph glyph-name="Tbar" unicode="&#x166;" horiz-adv-x="567" 
d="M537 614v-70h-214v-193h113v-67h-113v-284h-79v284h-113v67h113v193h-214v70h507z" />
    <glyph glyph-name="tbar" unicode="&#x167;" horiz-adv-x="318" 
d="M271 280v-61h-80v-219h-75v219h-73v61h73v100h-93v64h93v117h75v-117h103v-64h-103v-100h80z" />
    <glyph glyph-name="Utilde" unicode="&#x168;" horiz-adv-x="607" 
d="M303 -9q-52 0 -96 16t-76 47.5t-50 79t-18 110.5v370h78v-361q0 -99 43.5 -145.5t118.5 -46.5t118.5 46.5t43.5 145.5v361h79v-371q0 -63 -18 -110.5t-50 -79t-76.5 -47t-96.5 -15.5zM438 784q0 -54 -19 -86.5t-57 -32.5q-18 0 -32.5 8.5t-27.5 19t-25 19.5t-25 9
q-34 0 -34 -53h-49q0 54 19 86.5t57 32.5q19 0 33.5 -9t27 -19.5t24.5 -19t26 -8.5q32 0 34 53h48z" />
    <glyph glyph-name="utilde" unicode="&#x169;" horiz-adv-x="487" 
d="M345 0v56q-19 -26 -52.5 -45.5t-76.5 -19.5q-76 0 -115.5 44.5t-39.5 117.5v291h76v-279q0 -47 23 -76t74 -29q39 0 69 23.5t42 59.5v301h76v-444h-76zM376 633q0 -54 -19 -86t-57 -32q-17 0 -31 9t-26 20t-23.5 20t-23.5 9q-17 0 -25.5 -14.5t-8.5 -40.5h-48q0 54 19 86
t57 32q18 0 32 -9t26 -20t23 -20t23 -9q17 0 25 14.5t9 40.5h48z" />
    <glyph glyph-name="Umacron" unicode="&#x16a;" horiz-adv-x="607" 
d="M303 -9q-52 0 -96 16t-76 47.5t-50 79t-18 110.5v370h78v-361q0 -99 43.5 -145.5t118.5 -46.5t118.5 46.5t43.5 145.5v361h79v-371q0 -63 -18 -110.5t-50 -79t-76.5 -47t-96.5 -15.5zM410 732v-61h-213v61h213z" />
    <glyph glyph-name="umacron" unicode="&#x16b;" horiz-adv-x="487" 
d="M345 0v56q-19 -26 -52.5 -45.5t-76.5 -19.5q-76 0 -115.5 44.5t-39.5 117.5v291h76v-279q0 -47 23 -76t74 -29q39 0 69 23.5t42 59.5v301h76v-444h-76zM351 591v-61h-213v61h213z" />
    <glyph glyph-name="Ubreve" unicode="&#x16c;" horiz-adv-x="607" 
d="M303 -9q-52 0 -96 16t-76 47.5t-50 79t-18 110.5v370h78v-361q0 -99 43.5 -145.5t118.5 -46.5t118.5 46.5t43.5 145.5v361h79v-371q0 -63 -18 -110.5t-50 -79t-76.5 -47t-96.5 -15.5zM303 666q-51 0 -83 30.5t-32 89.5h57q0 -32 16 -48t42 -16t42.5 16t16.5 48h57
q0 -59 -31.5 -89.5t-84.5 -30.5z" />
    <glyph glyph-name="ubreve" unicode="&#x16d;" horiz-adv-x="487" 
d="M345 0v56q-19 -26 -52.5 -45.5t-76.5 -19.5q-76 0 -115.5 44.5t-39.5 117.5v291h76v-279q0 -47 23 -76t74 -29q39 0 69 23.5t42 59.5v301h76v-444h-76zM244 500q-51 0 -82.5 32.5t-31.5 95.5h57q0 -34 14.5 -53.5t42.5 -19.5t42.5 19.5t14.5 53.5h57q0 -63 -31.5 -95.5
t-82.5 -32.5z" />
    <glyph glyph-name="Uring" unicode="&#x16e;" horiz-adv-x="607" 
d="M303 -9q-52 0 -96 16t-76 47.5t-50 79t-18 110.5v370h78v-361q0 -99 43.5 -145.5t118.5 -46.5t118.5 46.5t43.5 145.5v361h79v-371q0 -63 -18 -110.5t-50 -79t-76.5 -47t-96.5 -15.5zM390 734q0 -36 -25 -61t-62 -25t-62 25t-25 61q0 37 25 62t62 25t62 -25t25 -62z
M348 734q0 20 -13 33t-32 13t-32 -13t-13 -33q0 -19 13 -32t32 -13t32 13t13 32z" />
    <glyph glyph-name="uring" unicode="&#x16f;" horiz-adv-x="487" 
d="M345 0v56q-19 -26 -52.5 -45.5t-76.5 -19.5q-76 0 -115.5 44.5t-39.5 117.5v291h76v-279q0 -47 23 -76t74 -29q39 0 69 23.5t42 59.5v301h76v-444h-76zM331 580q0 -37 -25 -61.5t-62 -24.5t-62 24.5t-25 61.5t25 61.5t62 24.5t62 -24.5t25 -61.5zM289 580q0 20 -13 32.5
t-32 12.5t-32 -12.5t-13 -32.5t13 -32.5t32 -12.5t32 12.5t13 32.5z" />
    <glyph glyph-name="Uhungarumlaut" unicode="&#x170;" horiz-adv-x="607" 
d="M303 -9q-52 0 -96 16t-76 47.5t-50 79t-18 110.5v370h78v-361q0 -99 43.5 -145.5t118.5 -46.5t118.5 46.5t43.5 145.5v361h79v-371q0 -63 -18 -110.5t-50 -79t-76.5 -47t-96.5 -15.5zM281 785h66l-68 -117h-65zM403 785h67l-68 -117h-65z" />
    <glyph glyph-name="uhungarumlaut" unicode="&#x171;" horiz-adv-x="487" 
d="M345 0v56q-19 -26 -52.5 -45.5t-76.5 -19.5q-76 0 -115.5 44.5t-39.5 117.5v291h76v-279q0 -47 23 -76t74 -29q39 0 69 23.5t42 59.5v301h76v-444h-76zM215 650h65l-68 -134h-63zM335 650h64l-68 -134h-63z" />
    <glyph glyph-name="Uogonek" unicode="&#x172;" horiz-adv-x="607" 
d="M303 -9q-52 0 -96 16t-76 47.5t-50 79t-18 110.5v370h78v-361q0 -99 43.5 -145.5t118.5 -46.5t118.5 46.5t43.5 145.5v361h79v-371q0 -83 -28.5 -134t-80.5 -88q-53 -38 -72.5 -70t-19.5 -57q0 -26 23 -26q10 0 18 3.5t19 11.5v-50q-11 -8 -23.5 -13.5t-28.5 -5.5
q-32 0 -49.5 18t-17.5 49q0 28 14 57t43 56q-6 -2 -19 -2.5t-19 -0.5z" />
    <glyph glyph-name="uogonek" unicode="&#x173;" horiz-adv-x="487" 
d="M421 0q-15 -24 -24.5 -40.5t-15 -28t-7.5 -20t-2 -17.5q0 -26 22 -26q10 0 18 3.5t19 11.5v-50q-11 -8 -23.5 -13.5t-28.5 -5.5q-32 0 -49 18t-17 48q0 28 14.5 55t37.5 65h-20v56q-19 -26 -52.5 -45.5t-76.5 -19.5q-76 0 -115.5 44.5t-39.5 117.5v291h76v-279
q0 -47 23 -76t74 -29q39 0 69 23.5t42 59.5v301h76v-444z" />
    <glyph glyph-name="Wcircumflex" unicode="&#x174;" horiz-adv-x="767" 
d="M546 126l126 488h76l-163 -614h-72l-129 479l-131 -479h-71l-163 614h78l126 -488l130 488h63zM442 669l-59 71l-59 -71h-68l92 122h70l92 -122h-68z" />
    <glyph glyph-name="wcircumflex" unicode="&#x175;" horiz-adv-x="629" 
d="M538 444h73l-131 -444h-73l-92 337l-93 -337h-73l-131 444h75l98 -339l91 339h67l91 -339zM377 509l-62 88l-62 -88h-65l92 136h70l92 -136h-65z" />
    <glyph glyph-name="Ycircumflex" unicode="&#x176;" horiz-adv-x="557" 
d="M541 614l-224 -361v-253h-78v253l-222 361h86l177 -290l177 290h84zM338 669l-59 71l-59 -71h-68l92 122h70l92 -122h-68z" />
    <glyph glyph-name="ycircumflex" unicode="&#x177;" horiz-adv-x="455" 
d="M191 -3l-173 447h81l131 -350l129 350h78l-239 -614h-74zM291 509l-62 88l-62 -88h-65l92 136h70l92 -136h-65z" />
    <glyph glyph-name="Ydieresis" unicode="&#x178;" horiz-adv-x="557" 
d="M541 614l-224 -361v-253h-78v253l-222 361h86l177 -290l177 290h84zM162 722q0 20 13.5 33t33.5 13q19 0 32.5 -13t13.5 -33t-13.5 -33t-32.5 -13q-20 0 -33.5 13t-13.5 33zM303 722q0 20 13 33t32 13q20 0 33.5 -13t13.5 -33t-13.5 -33t-33.5 -13q-19 0 -32 13t-13 33z
" />
    <glyph glyph-name="Zacute" unicode="&#x179;" horiz-adv-x="529" 
d="M30 0v4l341 540h-326v70h450v-4l-339 -539h336v-71h-462zM311 785h87l-91 -117h-76z" />
    <glyph glyph-name="zacute" unicode="&#x17a;" horiz-adv-x="424" 
d="M31 0v4l239 376h-228v64h344v-4l-238 -376h237v-64h-354zM254 650h78l-89 -134h-69z" />
    <glyph glyph-name="Zdotaccent" unicode="&#x17b;" horiz-adv-x="529" 
d="M30 0v4l341 540h-326v70h450v-4l-339 -539h336v-71h-462zM323 721q0 -20 -14 -34t-34 -14t-34 14t-14 34t14 34.5t34 14.5t34 -14.5t14 -34.5z" />
    <glyph glyph-name="zdotaccent" unicode="&#x17c;" horiz-adv-x="424" 
d="M31 0v4l239 376h-228v64h344v-4l-238 -376h237v-64h-354zM262 578q0 -20 -14 -34t-34 -14t-34 14t-14 34t14 34t34 14t34 -14t14 -34z" />
    <glyph glyph-name="Zcaron" unicode="&#x17d;" horiz-adv-x="529" 
d="M30 0v4l341 540h-326v70h450v-4l-339 -539h336v-71h-462zM216 787l59 -71l59 71h68l-92 -121h-70l-92 121h68z" />
    <glyph glyph-name="zcaron" unicode="&#x17e;" horiz-adv-x="424" 
d="M31 0v4l239 376h-228v64h344v-4l-238 -376h237v-64h-354zM179 510l-92 136h65l62 -87l62 87h65l-92 -136h-70z" />
    <glyph glyph-name="florin" unicode="&#x192;" horiz-adv-x="405" 
d="M150 344l25 138q12 66 52 103.5t103 37.5q35 0 61 -12v-68q-26 14 -60 14q-32 0 -53.5 -21t-28.5 -60l-24 -132h97v-63h-108l-56 -320q-11 -64 -43 -101t-97 -37q-35 0 -60 12v68q13 -7 29 -10.5t30 -3.5q33 0 46.5 21t20.5 57l55 314h-71v63h82z" />
    <glyph glyph-name="Aringacute" unicode="&#x1fa;" horiz-adv-x="596" 
d="M386 711q0 -32 -25.5 -53t-63.5 -21q-37 0 -62.5 21t-25.5 53q0 31 25.5 52.5t62.5 21.5q38 0 63.5 -21.5t25.5 -52.5zM320 894h86l-67 -86h-74zM344 711q0 17 -13.5 26.5t-33.5 9.5q-19 0 -32.5 -9.5t-13.5 -26.5t13.5 -26.5t32.5 -9.5q20 0 33.5 9.5t13.5 26.5zM575 0
h-80l-71 185h-253l-70 -185h-80l240 614h74zM397 254l-100 262l-100 -262h200z" />
    <glyph glyph-name="aringacute" unicode="&#x1fb;" horiz-adv-x="448" 
d="M314 550q0 -31 -25.5 -52.5t-63.5 -21.5q-37 0 -62.5 21.5t-25.5 52.5q0 32 25.5 53t62.5 21q38 0 63.5 -21t25.5 -53zM272 550q0 17 -13.5 27t-33.5 10q-19 0 -32.5 -10t-13.5 -27t13.5 -26.5t32.5 -9.5q20 0 33.5 9.5t13.5 26.5zM248 733h86l-67 -86h-74zM314 295
q0 42 -28.5 65.5t-77.5 23.5q-37 0 -67.5 -10.5t-58.5 -28.5v71q23 16 59.5 26.5t78.5 10.5q79 0 123 -40.5t44 -111.5v-301h-73v33q-13 -14 -44.5 -27.5t-70.5 -13.5q-34 0 -64 10t-52.5 28t-35.5 44.5t-13 59.5q0 31 13 56.5t36 44t53.5 28.5t66.5 10q35 0 66 -11.5
t45 -24.5v58zM314 156q-9 25 -38.5 40t-64.5 15q-20 0 -39 -4.5t-34 -14t-24 -24t-9 -34.5t9 -35t24 -25t34 -14.5t39 -4.5q35 0 64.5 15t38.5 40v46z" />
    <glyph glyph-name="AEacute" unicode="&#x1fc;" horiz-adv-x="862" 
d="M811 544h-297v-194h268v-70h-268v-209h297v-71h-374v185h-222l-112 -185h-82l369 614h421v-70zM437 254v296l-180 -296h180zM624 785h87l-91 -117h-76z" />
    <glyph glyph-name="aeacute" unicode="&#x1fd;" horiz-adv-x="723" 
d="M522 -9q-57 0 -100 22t-70 64q-26 -35 -64.5 -60t-94.5 -25q-33 0 -62 9.5t-50.5 27.5t-34 43t-12.5 56q0 32 13 57.5t36.5 43.5t54.5 27.5t67 9.5h110v24q0 45 -29 69.5t-78 24.5q-37 0 -67.5 -10.5t-58.5 -28.5v71q23 16 59.5 26.5t78.5 10.5q55 0 91 -22t52 -58
q23 36 59 58t84 22q45 0 79 -16t57.5 -45t35 -69t11.5 -89v-27h-306q4 -78 46 -114t102 -36q38 0 67 9.5t60 32.5v-69q-27 -21 -61 -30t-75 -9zM199 55q44 0 73.5 23t42.5 58v71h-105q-20 0 -39 -4.5t-33.5 -13.5t-23.5 -23.5t-9 -33.5q0 -39 28 -58t66 -19zM507 389
q-45 0 -78.5 -30.5t-42.5 -92.5h230q-1 24 -8 46.5t-20.5 39.5t-33.5 27t-47 10zM416 650h78l-89 -134h-69z" />
    <glyph glyph-name="Oslashacute" unicode="&#x1fe;" horiz-adv-x="639" 
d="M112 89q-33 42 -51.5 97t-18.5 121q0 70 20.5 128t57.5 100t88 65t111 23q50 0 92.5 -15.5t77.5 -44.5l47 60l46 -33l-54 -67q33 -42 51 -96.5t18 -119.5q0 -69 -20.5 -127t-57.5 -100t-88 -65.5t-112 -23.5q-97 0 -166 57l-50 -63l-47 33zM121 307q0 -47 9.5 -87
t29.5 -71l284 357q-24 22 -55.5 34t-69.5 12q-44 0 -80.5 -18t-62.5 -50.5t-40.5 -77.5t-14.5 -99zM518 307q0 45 -9.5 84.5t-28.5 70.5l-282 -357q48 -43 121 -43q45 0 81.5 18t62.5 50.5t40.5 77.5t14.5 99zM355 785h87l-91 -117h-76z" />
    <glyph glyph-name="oslashacute" unicode="&#x1ff;" horiz-adv-x="488" 
d="M89 64q-49 61 -49 158q0 51 14.5 93.5t41.5 73t64.5 47.5t83.5 17q68 0 117 -37l42 53l41 -29l-46 -60q23 -30 36.5 -70t13.5 -88q0 -51 -15 -93.5t-42 -73t-64.5 -47.5t-82.5 -17q-70 0 -119 38l-44 -57l-41 29zM373 222q0 57 -22 99l-184 -238q31 -26 77 -26
q60 0 94.5 46t34.5 119zM115 222q0 -58 20 -98l184 237q-31 26 -75 26q-60 0 -94.5 -46t-34.5 -119zM283 650h78l-89 -134h-69z" />
    <glyph glyph-name="Scommaaccent" unicode="&#x218;" horiz-adv-x="481" 
d="M41 133q84 -72 193 -72q60 0 95.5 24.5t35.5 72.5q0 40 -24.5 61.5t-73.5 41.5l-90 35q-27 10 -52 24t-44 33.5t-30.5 46t-11.5 62.5q0 40 16 70t43 50t62.5 30.5t75.5 10.5q51 0 96 -13t80 -37v-83q-37 29 -79 46.5t-96 17.5q-51 0 -86 -22.5t-35 -68.5q0 -39 24.5 -59
t67.5 -37l97 -38q71 -27 103.5 -66.5t32.5 -103.5q0 -39 -15.5 -70.5t-43.5 -53t-65.5 -33t-82.5 -11.5q-63 0 -112 16t-81 41v85zM239 -137q-17 2 -28.5 14t-11.5 30q0 21 14.5 34.5t35.5 13.5q20 0 34.5 -13.5t14.5 -36.5q0 -17 -7 -30.5t-15 -26.5l-29 -49h-47z" />
    <glyph glyph-name="scommaaccent" unicode="&#x219;" horiz-adv-x="393" 
d="M181 -137q-17 2 -28.5 14t-11.5 30q0 21 14.5 34.5t35.5 13.5q20 0 34.5 -13.5t14.5 -36.5q0 -17 -7 -30.5t-15 -26.5l-29 -49h-47zM41 115q31 -29 68 -44.5t78 -15.5q37 0 64.5 14.5t27.5 47.5q0 25 -17.5 39.5t-46.5 24.5l-61 21q-51 17 -81.5 44.5t-30.5 81.5
q0 29 12 52.5t33.5 39.5t50 24.5t61.5 8.5q76 0 132 -39v-78q-28 23 -59.5 38t-72.5 15q-35 0 -59.5 -14.5t-24.5 -43.5q0 -27 17 -39.5t49 -23.5l68 -23q51 -17 77.5 -47t26.5 -78q0 -31 -13 -55t-35.5 -40.5t-52.5 -25t-65 -8.5q-44 0 -82.5 12t-63.5 32v80z" />
    <glyph glyph-name="uni0237" unicode="&#x237;" horiz-adv-x="207" 
d="M142 -51q0 -63 -33 -95.5t-96 -32.5q-7 0 -16.5 1t-15.5 3v64q5 -1 12 -2t14 -1q29 0 44.5 15t15.5 53v490h75v-495z" />
    <glyph glyph-name="circumflex" unicode="&#x2c6;" 
d="M312 509l-62 88l-62 -88h-65l92 136h70l92 -136h-65z" />
    <glyph glyph-name="caron" unicode="&#x2c7;" 
d="M215 510l-92 136h65l62 -87l62 87h65l-92 -136h-70z" />
    <glyph glyph-name="breve" unicode="&#x2d8;" 
d="M250 500q-51 0 -82.5 32.5t-31.5 95.5h57q0 -34 14.5 -53.5t42.5 -19.5t42.5 19.5t14.5 53.5h57q0 -63 -31.5 -95.5t-82.5 -32.5z" />
    <glyph glyph-name="dotaccent" unicode="&#x2d9;" 
d="M298 578q0 -20 -14 -34t-34 -14t-34 14t-14 34t14 34t34 14t34 -14t14 -34z" />
    <glyph glyph-name="ring" unicode="&#x2da;" 
d="M337 580q0 -37 -25 -61.5t-62 -24.5t-62 24.5t-25 61.5t25 61.5t62 24.5t62 -24.5t25 -61.5zM295 580q0 20 -13 32.5t-32 12.5t-32 -12.5t-13 -32.5t13 -32.5t32 -12.5t32 12.5t13 32.5z" />
    <glyph glyph-name="ogonek" unicode="&#x2db;" 
d="M305 4q-15 -25 -25 -42t-16 -29t-8.5 -21t-2.5 -18q0 -26 22 -26q10 0 18 3.5t19 11.5v-50q-11 -8 -23.5 -13.5t-28.5 -5.5q-32 0 -49 18t-17 48q0 29 15 56.5t40 67.5h56z" />
    <glyph glyph-name="tilde" unicode="&#x2dc;" 
d="M381 633q0 -54 -19 -86t-57 -32q-17 0 -31 9t-26 20t-23.5 20t-23.5 9q-17 0 -25.5 -14.5t-8.5 -40.5h-48q0 54 19 86t57 32q18 0 32 -9t26 -20t23 -20t23 -9q17 0 25 14.5t9 40.5h48z" />
    <glyph glyph-name="hungarumlaut" unicode="&#x2dd;" 
d="M191 650h65l-68 -134h-63zM311 650h64l-68 -134h-63z" />
    <glyph glyph-name="gravecomb" unicode="&#x300;" 
d="M171 650h78l80 -134h-69z" />
    <glyph glyph-name="acutecomb" unicode="&#x301;" 
d="M251 650h78l-89 -134h-69z" />
    <glyph glyph-name="circumflexcomb" unicode="&#x302;" 
d="M312 509l-62 88l-62 -88h-65l92 136h70l92 -136h-65z" />
    <glyph glyph-name="tildecomb" unicode="&#x303;" 
d="M381 633q0 -54 -19 -86t-57 -32q-17 0 -31 9t-26 20t-23.5 20t-23.5 9q-17 0 -25.5 -14.5t-8.5 -40.5h-48q0 54 19 86t57 32q18 0 32 -9t26 -20t23 -20t23 -9q17 0 25 14.5t9 40.5h48z" />
    <glyph glyph-name="macroncomb" unicode="&#x304;" 
d="M356 591v-61h-213v61h213z" />
    <glyph glyph-name="brevecomb" unicode="&#x306;" 
d="M250 500q-51 0 -82.5 32.5t-31.5 95.5h57q0 -34 14.5 -53.5t42.5 -19.5t42.5 19.5t14.5 53.5h57q0 -63 -31.5 -95.5t-82.5 -32.5z" />
    <glyph glyph-name="dotaccentcomb" unicode="&#x307;" 
d="M298 578q0 -20 -14 -34t-34 -14t-34 14t-14 34t14 34t34 14t34 -14t14 -34z" />
    <glyph glyph-name="dieresiscomb" unicode="&#x308;" 
d="M133 571q0 20 13.5 33.5t33.5 13.5q19 0 32.5 -13.5t13.5 -33.5q0 -19 -13.5 -32.5t-32.5 -13.5q-20 0 -33.5 13.5t-13.5 32.5zM274 571q0 20 13 33.5t32 13.5q20 0 33.5 -13.5t13.5 -33.5q0 -19 -13.5 -32.5t-33.5 -13.5q-19 0 -32 13.5t-13 32.5z" />
    <glyph glyph-name="ringcomb" unicode="&#x30a;" 
d="M337 580q0 -37 -25 -61.5t-62 -24.5t-62 24.5t-25 61.5t25 61.5t62 24.5t62 -24.5t25 -61.5zM295 580q0 20 -13 32.5t-32 12.5t-32 -12.5t-13 -32.5t13 -32.5t32 -12.5t32 12.5t13 32.5z" />
    <glyph glyph-name="hungarumlautcomb" unicode="&#x30b;" 
d="M191 650h65l-68 -134h-63zM311 650h64l-68 -134h-63z" />
    <glyph glyph-name="caroncomb" unicode="&#x30c;" 
d="M215 510l-92 136h65l62 -87l62 87h65l-92 -136h-70z" />
    <glyph glyph-name="commaturnedabovecomb" unicode="&#x312;" 
d="M257 615q18 -2 29.5 -14t11.5 -32q0 -21 -14.5 -34.5t-36.5 -13.5q-21 0 -35.5 14t-14.5 37q0 17 6.5 31t15.5 28l29 49h49z" />
    <glyph glyph-name="commaaccentcomb" unicode="&#x326;" 
d="M243 -137q-17 2 -28.5 14t-11.5 30q0 21 14.5 34.5t35.5 13.5q20 0 34.5 -13.5t14.5 -36.5q0 -17 -7 -30.5t-15 -26.5l-29 -49h-47z" />
    <glyph glyph-name="cedillacomb" unicode="&#x327;" 
d="M245 -51h74l-69 -132h-71z" />
    <glyph glyph-name="ogonekcomb" unicode="&#x328;" 
d="M305 4q-15 -25 -25 -42t-16 -29t-8.5 -21t-2.5 -18q0 -26 22 -26q10 0 18 3.5t19 11.5v-50q-11 -8 -23.5 -13.5t-28.5 -5.5q-32 0 -49 18t-17 48q0 29 15 56.5t40 67.5h56z" />
    <glyph glyph-name="Wgrave" unicode="&#x1e80;" horiz-adv-x="767" 
d="M546 126l126 488h76l-163 -614h-72l-129 479l-131 -479h-71l-163 614h78l126 -488l130 488h63zM254 785h87l80 -117h-75z" />
    <glyph glyph-name="wgrave" unicode="&#x1e81;" horiz-adv-x="629" 
d="M538 444h73l-131 -444h-73l-92 337l-93 -337h-73l-131 444h75l98 -339l91 339h67l91 -339zM195 650h78l80 -134h-69z" />
    <glyph glyph-name="Wacute" unicode="&#x1e82;" horiz-adv-x="767" 
d="M546 126l126 488h76l-163 -614h-72l-129 479l-131 -479h-71l-163 614h78l126 -488l130 488h63zM424 785h87l-91 -117h-76z" />
    <glyph glyph-name="wacute" unicode="&#x1e83;" horiz-adv-x="629" 
d="M538 444h73l-131 -444h-73l-92 337l-93 -337h-73l-131 444h75l98 -339l91 339h67l91 -339zM355 650h78l-89 -134h-69z" />
    <glyph glyph-name="Wdieresis" unicode="&#x1e84;" horiz-adv-x="767" 
d="M546 126l126 488h76l-163 -614h-72l-129 479l-131 -479h-71l-163 614h78l126 -488l130 488h63zM267 722q0 20 13.5 33t33.5 13q19 0 32.5 -13t13.5 -33t-13.5 -33t-32.5 -13q-20 0 -33.5 13t-13.5 33zM408 722q0 20 13 33t32 13q20 0 33.5 -13t13.5 -33t-13.5 -33
t-33.5 -13q-19 0 -32 13t-13 33z" />
    <glyph glyph-name="wdieresis" unicode="&#x1e85;" horiz-adv-x="629" 
d="M538 444h73l-131 -444h-73l-92 337l-93 -337h-73l-131 444h75l98 -339l91 339h67l91 -339zM198 571q0 20 13.5 33.5t33.5 13.5q19 0 32.5 -13.5t13.5 -33.5q0 -19 -13.5 -32.5t-32.5 -13.5q-20 0 -33.5 13.5t-13.5 32.5zM339 571q0 20 13 33.5t32 13.5q20 0 33.5 -13.5
t13.5 -33.5q0 -19 -13.5 -32.5t-33.5 -13.5q-19 0 -32 13.5t-13 32.5z" />
    <glyph glyph-name="Ygrave" unicode="&#x1ef2;" horiz-adv-x="557" 
d="M541 614l-224 -361v-253h-78v253l-222 361h86l177 -290l177 290h84zM153 785h87l80 -117h-75z" />
    <glyph glyph-name="ygrave" unicode="&#x1ef3;" horiz-adv-x="455" 
d="M191 -3l-173 447h81l131 -350l129 350h78l-239 -614h-74zM109 650h78l80 -134h-69z" />
    <glyph glyph-name="endash" unicode="&#x2013;" horiz-adv-x="475" 
d="M435 292v-61h-395v61h395z" />
    <glyph glyph-name="emdash" unicode="&#x2014;" horiz-adv-x="846" 
d="M806 292v-61h-766v61h766z" />
    <glyph glyph-name="quoteleft" unicode="&#x2018;" horiz-adv-x="168" 
d="M88 511q19 -3 31.5 -16t12.5 -34q0 -23 -15.5 -38t-38.5 -15t-38 15t-15 43q0 16 6.5 32t15.5 31l51 85h51z" />
    <glyph glyph-name="quoteright" unicode="&#x2019;" horiz-adv-x="168" 
d="M80 520q-19 3 -31.5 16t-12.5 34q0 23 15.5 38t38.5 15t38 -15t15 -43q0 -16 -6.5 -32t-15.5 -31l-51 -85h-51z" />
    <glyph glyph-name="quotesinglbase" unicode="&#x201a;" horiz-adv-x="161" 
d="M80 0q-19 3 -31.5 16t-12.5 34q0 23 15.5 38t38.5 15t38 -15t15 -43q0 -16 -6.5 -32t-15.5 -31l-51 -85h-51z" />
    <glyph glyph-name="quotedblleft" unicode="&#x201c;" horiz-adv-x="321" 
d="M88 511q19 -3 31.5 -16t12.5 -34q0 -23 -15.5 -38t-38.5 -15t-38 15t-15 43q0 16 6.5 32t15.5 31l51 85h51zM241 511q19 -3 31.5 -16t12.5 -34q0 -23 -15.5 -38t-38.5 -15t-38 15t-15 43q0 16 6.5 32t15.5 31l51 85h51z" />
    <glyph glyph-name="quotedblright" unicode="&#x201d;" horiz-adv-x="321" 
d="M80 520q-19 3 -31.5 16t-12.5 34q0 23 15.5 38t38.5 15t38 -15t15 -43q0 -16 -6.5 -32t-15.5 -31l-51 -85h-51zM233 520q-19 3 -31.5 16t-12.5 34q0 23 15.5 38t38.5 15t38 -15t15 -43q0 -16 -6.5 -32t-15.5 -31l-51 -85h-51z" />
    <glyph glyph-name="quotedblbase" unicode="&#x201e;" horiz-adv-x="321" 
d="M80 0q-19 3 -31.5 16t-12.5 34q0 23 15.5 38t38.5 15t38 -15t15 -43q0 -16 -6.5 -32t-15.5 -31l-51 -85h-51zM233 0q-19 3 -31.5 16t-12.5 34q0 23 15.5 38t38.5 15t38 -15t15 -43q0 -16 -6.5 -32t-15.5 -31l-51 -85h-51z" />
    <glyph glyph-name="dagger" unicode="&#x2020;" horiz-adv-x="317" 
d="M129 558v92h58v-92h99v-56h-99v-207h-58v207h-99v56h99z" />
    <glyph glyph-name="daggerdbl" unicode="&#x2021;" horiz-adv-x="325" 
d="M133 565v85h58v-85h101v-53h-101v-80h101v-52h-101v-85h-58v85h-99v52h99v80h-99v53h99z" />
    <glyph glyph-name="bullet" unicode="&#x2022;" horiz-adv-x="343" 
d="M308 261q0 -30 -10.5 -55t-29.5 -43t-44 -28t-53 -10q-29 0 -53.5 10t-43 28t-29 43t-10.5 55t10.5 55t29 43t43 28t53.5 10q28 0 53 -10t44 -28t29.5 -43t10.5 -55z" />
    <glyph glyph-name="ellipsis" unicode="&#x2026;" horiz-adv-x="554" 
d="M32 49q0 23 15.5 39t38.5 16q22 0 37.5 -16t15.5 -39t-15.5 -38.5t-37.5 -15.5q-23 0 -38.5 15.5t-15.5 38.5zM224 49q0 23 15.5 39t37.5 16q23 0 38.5 -16t15.5 -39t-15.5 -38.5t-38.5 -15.5q-22 0 -37.5 15.5t-15.5 38.5zM415 49q0 23 15.5 39t38.5 16q22 0 37.5 -16
t15.5 -39t-15.5 -38.5t-37.5 -15.5q-23 0 -38.5 15.5t-15.5 38.5z" />
    <glyph glyph-name="perthousand" unicode="&#x2030;" horiz-adv-x="941" 
d="M908 124q0 -28 -10.5 -52t-28.5 -42t-42 -28.5t-52 -10.5t-52 10.5t-42 28.5t-28.5 42t-10.5 52t10.5 52t28.5 42t42 28.5t52 10.5t52 -10.5t42 -28.5t28.5 -42t10.5 -52zM849 124q0 31 -21.5 52.5t-52.5 21.5t-53 -21.5t-22 -52.5t22 -53t53 -22t52.5 22t21.5 53z
M92 490q0 -31 21.5 -52.5t52.5 -21.5t53 21.5t22 52.5t-22 53t-53 22t-52.5 -22t-21.5 -53zM544 614l-383 -614h-62l383 614h62zM609 124q0 -28 -10.5 -52t-28.5 -42t-42 -28.5t-52 -10.5t-52 10.5t-42 28.5t-28.5 42t-10.5 52t10.5 52t28.5 42t42 28.5t52 10.5t52 -10.5
t42 -28.5t28.5 -42t10.5 -52zM299 490q0 -28 -10.5 -52t-28.5 -42t-42 -28.5t-52 -10.5t-52 10.5t-42 28.5t-28.5 42t-10.5 52t10.5 52t28.5 42t42 28.5t52 10.5t52 -10.5t42 -28.5t28.5 -42t10.5 -52zM550 124q0 31 -21.5 52.5t-52.5 21.5t-53 -21.5t-22 -52.5t22 -53
t53 -22t52.5 22t21.5 53z" />
    <glyph glyph-name="guilsinglleft" unicode="&#x2039;" horiz-adv-x="215" 
d="M25 222l92 148h73l-92 -148l92 -148h-73z" />
    <glyph glyph-name="guilsinglright" unicode="&#x203a;" horiz-adv-x="215" 
d="M117 222l-92 148h73l92 -148l-92 -148h-73z" />
    <glyph glyph-name="fraction" unicode="&#x2044;" horiz-adv-x="150" 
d="M-173 0l429 614h67l-429 -614h-67z" />
    <glyph glyph-name="zerosuperior" unicode="&#x2070;" horiz-adv-x="316" 
d="M158 277q-57 0 -93.5 46.5t-36.5 124.5t36.5 124.5t93.5 46.5t93.5 -46.5t36.5 -124.5t-36.5 -124.5t-93.5 -46.5zM158 562q-32 0 -50 -29t-18 -85t18 -85t50 -29t50 29t18 85t-18 85t-50 29z" />
    <glyph glyph-name="foursuperior" unicode="&#x2074;" horiz-adv-x="293" 
d="M177 405v67h56v-67h47v-53h-47v-70h-56v70h-164v2l120 260h63l-96 -209h77z" />
    <glyph glyph-name="fivesuperior" unicode="&#x2075;" horiz-adv-x="260" 
d="M122 495q51 0 84.5 -29t33.5 -80t-35 -80t-87 -29q-31 0 -53 7.5t-39 19.5v61q17 -17 39.5 -26t47.5 -9q28 0 48 14t20 42q0 27 -20.5 41.5t-49.5 14.5q-21 0 -39 -4t-34 -10v186h184v-56h-133v-68q13 5 33 5z" />
    <glyph glyph-name="sixsuperior" unicode="&#x2076;" horiz-adv-x="287" 
d="M144 277q-26 0 -48 9t-38 25t-25 37.5t-9 46.5q0 22 8 44.5t25 53.5l68 121h66l-65 -116q6 4 15 6t17 2q21 0 40 -8t33.5 -22.5t23 -35t8.5 -45.5q0 -50 -33 -84t-86 -34zM204 393q0 29 -16.5 46.5t-43.5 17.5t-43.5 -17.5t-16.5 -46.5t16.5 -46.5t43.5 -17.5t43.5 17.5
t16.5 46.5z" />
    <glyph glyph-name="sevensuperior" unicode="&#x2077;" horiz-adv-x="255" 
d="M34 282l127 276h-150v56h240v-2l-151 -330h-66z" />
    <glyph glyph-name="eightsuperior" unicode="&#x2078;" horiz-adv-x="295" 
d="M148 327q25 0 41.5 14t16.5 37q0 22 -16.5 36t-41.5 14q-26 0 -42 -14t-16 -36q0 -23 16 -37t42 -14zM148 480q21 0 35 12.5t14 32.5t-14 32.5t-35 12.5q-22 0 -36.5 -12.5t-14.5 -32.5t14.5 -32.5t36.5 -12.5zM148 277q-51 0 -85.5 25.5t-34.5 70.5q0 31 17 51.5
t42 28.5q-22 10 -35 29t-13 44q0 45 32 69t77 24q22 0 41.5 -6t34.5 -18t23.5 -29.5t8.5 -39.5q0 -25 -13.5 -44t-34.5 -29q25 -8 42 -28.5t17 -51.5q0 -45 -34 -70.5t-85 -25.5z" />
    <glyph glyph-name="ninesuperior" unicode="&#x2079;" horiz-adv-x="287" 
d="M143 619q26 0 48 -9t38 -25t25 -37.5t9 -46.5q0 -22 -8 -44.5t-25 -53.5l-68 -121h-66l65 116q-6 -4 -15 -6t-17 -2q-21 0 -40 8t-33.5 22.5t-23 35t-8.5 45.5q0 50 33 84t86 34zM83 503q0 -29 16.5 -46.5t43.5 -17.5t43.5 17.5t16.5 46.5t-16.5 46.5t-43.5 17.5
t-43.5 -17.5t-16.5 -46.5z" />
    <glyph glyph-name="zeroinferior" unicode="&#x2080;" horiz-adv-x="316" 
d="M158 -5q-57 0 -93.5 46.5t-36.5 124.5t36.5 124.5t93.5 46.5t93.5 -46.5t36.5 -124.5t-36.5 -124.5t-93.5 -46.5zM158 280q-32 0 -50 -29t-18 -85t18 -85t50 -29t50 29t18 85t-18 85t-50 29z" />
    <glyph glyph-name="oneinferior" unicode="&#x2081;" horiz-adv-x="216" 
d="M105 0v259l-88 -44v64l108 54h43v-333h-63z" />
    <glyph glyph-name="twoinferior" unicode="&#x2082;" horiz-adv-x="274" 
d="M249 0h-229v2l100 127q25 31 41 54t16 49q0 21 -14 34.5t-40 13.5t-51.5 -15t-42.5 -31v64q18 17 46 28t61 11q48 0 75.5 -26t27.5 -70q0 -34 -18.5 -63.5t-43.5 -61.5l-48 -61h120v-55z" />
    <glyph glyph-name="threeinferior" unicode="&#x2083;" horiz-adv-x="263" 
d="M237 332v-2l-75 -130q34 -9 55.5 -33.5t21.5 -62.5q0 -26 -9.5 -46t-25.5 -34t-37.5 -21.5t-45.5 -7.5q-33 0 -55.5 7.5t-39.5 19.5v62q19 -17 42 -26t47 -9q29 0 46.5 14t17.5 41q0 32 -27.5 46.5t-66.5 12.5v2l66 111h-123v56h209z" />
    <glyph glyph-name="fourinferior" unicode="&#x2084;" horiz-adv-x="293" 
d="M177 123v67h56v-67h47v-53h-47v-70h-56v70h-164v2l120 260h63l-96 -209h77z" />
    <glyph glyph-name="fiveinferior" unicode="&#x2085;" horiz-adv-x="260" 
d="M122 213q51 0 84.5 -29t33.5 -80t-35 -80t-87 -29q-31 0 -53 7.5t-39 19.5v61q17 -17 39.5 -26t47.5 -9q28 0 48 14t20 42q0 27 -20.5 41.5t-49.5 14.5q-21 0 -39 -4t-34 -10v186h184v-56h-133v-68q13 5 33 5z" />
    <glyph glyph-name="sixinferior" unicode="&#x2086;" horiz-adv-x="287" 
d="M144 -5q-26 0 -48 9t-38 25t-25 37.5t-9 46.5q0 22 8 44.5t25 53.5l68 121h66l-65 -116q6 4 15 6t17 2q21 0 40 -8t33.5 -22.5t23 -35t8.5 -45.5q0 -50 -33 -84t-86 -34zM204 111q0 29 -16.5 46.5t-43.5 17.5t-43.5 -17.5t-16.5 -46.5t16.5 -46.5t43.5 -17.5t43.5 17.5
t16.5 46.5z" />
    <glyph glyph-name="seveninferior" unicode="&#x2087;" horiz-adv-x="255" 
d="M34 0l127 276h-150v56h240v-2l-151 -330h-66z" />
    <glyph glyph-name="eightinferior" unicode="&#x2088;" horiz-adv-x="295" 
d="M148 45q25 0 41.5 14t16.5 37q0 22 -16.5 36t-41.5 14q-26 0 -42 -14t-16 -36q0 -23 16 -37t42 -14zM148 198q21 0 35 12.5t14 32.5t-14 32.5t-35 12.5q-22 0 -36.5 -12.5t-14.5 -32.5t14.5 -32.5t36.5 -12.5zM148 -5q-51 0 -85.5 25.5t-34.5 70.5q0 31 17 51.5t42 28.5
q-22 10 -35 29t-13 44q0 45 32 69t77 24q22 0 41.5 -6t34.5 -18t23.5 -29.5t8.5 -39.5q0 -25 -13.5 -44t-34.5 -29q25 -8 42 -28.5t17 -51.5q0 -45 -34 -70.5t-85 -25.5z" />
    <glyph glyph-name="nineinferior" unicode="&#x2089;" horiz-adv-x="287" 
d="M143 337q26 0 48 -9t38 -25t25 -37.5t9 -46.5q0 -22 -8 -44.5t-25 -53.5l-68 -121h-66l65 116q-6 -4 -15 -6t-17 -2q-21 0 -40 8t-33.5 22.5t-23 35t-8.5 45.5q0 50 33 84t86 34zM83 221q0 -29 16.5 -46.5t43.5 -17.5t43.5 17.5t16.5 46.5t-16.5 46.5t-43.5 17.5
t-43.5 -17.5t-16.5 -46.5z" />
    <glyph glyph-name="Euro" unicode="&#x20ac;" horiz-adv-x="504" 
d="M77 270q-1 9 -1 18v19q0 8 0.5 16t0.5 16h-54v60h62q12 52 36 93.5t57.5 70.5t75.5 44.5t89 15.5q39 0 70.5 -9.5t56.5 -26.5v-78q-55 45 -127 45q-65 0 -112.5 -41.5t-67.5 -113.5h205l-12 -60h-203q-1 -8 -1 -16v-16q0 -10 0.5 -19t1.5 -18h191l-12 -60h-168
q20 -69 67 -109.5t111 -40.5q72 0 127 45v-78q-25 -17 -56.5 -26.5t-70.5 -9.5q-47 0 -88 15t-75 43.5t-58 69t-36 91.5h-63v60h54z" />
    <glyph glyph-name="uni2117" unicode="&#x2117;" horiz-adv-x="706" 
d="M669 307q0 -69 -25 -127t-68 -100t-100.5 -65.5t-122.5 -23.5t-122.5 23.5t-100.5 65.5t-68 100t-25 127t25 127t68 100t100.5 65.5t122.5 23.5t122.5 -23.5t100.5 -65.5t68 -100t25 -127zM630 307q0 60 -22 111t-59.5 88t-88 57.5t-107.5 20.5t-107.5 -20.5t-88 -57.5
t-59.5 -88t-22 -111t22 -111t59.5 -88t88 -57.5t107.5 -20.5t107.5 20.5t88 57.5t59.5 88t22 111zM306 124h-69v369h152q58 0 93 -30.5t35 -88.5q0 -59 -35 -89.5t-93 -30.5h-83v-130zM449 374q0 26 -16 42t-48 16h-79v-116h79q32 0 48 15.5t16 42.5z" />
    <glyph glyph-name="trademark" unicode="&#x2122;" horiz-adv-x="569" 
d="M235 614v-46h-81v-208h-54v208h-82v46h217zM326 525v-165h-52v254h49l77 -119l78 119h48v-254h-52v165l-71 -108h-5z" />
    <glyph glyph-name="uni2153" unicode="&#x2153;" horiz-adv-x="640" 
d="M614 332v-2l-75 -130q34 -9 55.5 -33.5t21.5 -62.5q0 -26 -9.5 -46t-25.5 -34t-37.5 -21.5t-45.5 -7.5q-33 0 -55.5 7.5t-39.5 19.5v62q19 -17 42 -26t47 -9q29 0 46.5 14t17.5 41q0 32 -27.5 46.5t-66.5 12.5v2l66 111h-123v56h209zM105 282v259l-88 -44v64l108 54h43
v-333h-63zM53 0l429 614h67l-429 -614h-67z" />
    <glyph glyph-name="uni2154" unicode="&#x2154;" horiz-adv-x="696" 
d="M670 332v-2l-75 -130q34 -9 55.5 -33.5t21.5 -62.5q0 -26 -9.5 -46t-25.5 -34t-37.5 -21.5t-45.5 -7.5q-33 0 -55.5 7.5t-39.5 19.5v62q19 -17 42 -26t47 -9q29 0 46.5 14t17.5 41q0 32 -27.5 46.5t-66.5 12.5v2l66 111h-123v56h209zM249 282h-229v2l100 127q25 31 41 54
t16 49q0 21 -14 34.5t-40 13.5t-51.5 -15t-42.5 -31v64q18 17 46 28t61 11q48 0 75.5 -26t27.5 -70q0 -34 -18.5 -63.5t-43.5 -61.5l-48 -61h120v-55zM110 0l429 614h67l-429 -614h-67z" />
    <glyph glyph-name="uni215B" unicode="&#x215b;" horiz-adv-x="645" 
d="M498 45q25 0 41.5 14t16.5 37q0 22 -16.5 36t-41.5 14q-26 0 -42 -14t-16 -36q0 -23 16 -37t42 -14zM498 198q21 0 35 12.5t14 32.5t-14 32.5t-35 12.5q-22 0 -36.5 -12.5t-14.5 -32.5t14.5 -32.5t36.5 -12.5zM498 -5q-51 0 -85.5 25.5t-34.5 70.5q0 31 17 51.5t42 28.5
q-22 10 -35 29t-13 44q0 45 32 69t77 24q22 0 41.5 -6t34.5 -18t23.5 -29.5t8.5 -39.5q0 -25 -13.5 -44t-34.5 -29q25 -8 42 -28.5t17 -51.5q0 -45 -34 -70.5t-85 -25.5zM105 282v259l-88 -44v64l108 54h43v-333h-63zM53 0l429 614h67l-429 -614h-67z" />
    <glyph glyph-name="uni215C" unicode="&#x215c;" horiz-adv-x="665" 
d="M518 45q25 0 41.5 14t16.5 37q0 22 -16.5 36t-41.5 14q-26 0 -42 -14t-16 -36q0 -23 16 -37t42 -14zM518 198q21 0 35 12.5t14 32.5t-14 32.5t-35 12.5q-22 0 -36.5 -12.5t-14.5 -32.5t14.5 -32.5t36.5 -12.5zM518 -5q-51 0 -85.5 25.5t-34.5 70.5q0 31 17 51.5t42 28.5
q-22 10 -35 29t-13 44q0 45 32 69t77 24q22 0 41.5 -6t34.5 -18t23.5 -29.5t8.5 -39.5q0 -25 -13.5 -44t-34.5 -29q25 -8 42 -28.5t17 -51.5q0 -45 -34 -70.5t-85 -25.5zM237 614v-2l-75 -130q34 -9 55.5 -33.5t21.5 -62.5q0 -26 -9.5 -46t-25.5 -34t-37.5 -21.5t-45.5 -7.5
q-33 0 -55.5 7.5t-39.5 19.5v62q19 -17 42 -26t47 -9q29 0 46.5 14t17.5 41q0 32 -27.5 46.5t-66.5 12.5v2l66 111h-123v56h209zM73 0l429 614h67l-429 -614h-67z" />
    <glyph glyph-name="uni215D" unicode="&#x215d;" horiz-adv-x="667" 
d="M520 45q25 0 41.5 14t16.5 37q0 22 -16.5 36t-41.5 14q-26 0 -42 -14t-16 -36q0 -23 16 -37t42 -14zM520 198q21 0 35 12.5t14 32.5t-14 32.5t-35 12.5q-22 0 -36.5 -12.5t-14.5 -32.5t14.5 -32.5t36.5 -12.5zM520 -5q-51 0 -85.5 25.5t-34.5 70.5q0 31 17 51.5t42 28.5
q-22 10 -35 29t-13 44q0 45 32 69t77 24q22 0 41.5 -6t34.5 -18t23.5 -29.5t8.5 -39.5q0 -25 -13.5 -44t-34.5 -29q25 -8 42 -28.5t17 -51.5q0 -45 -34 -70.5t-85 -25.5zM122 495q51 0 84.5 -29t33.5 -80t-35 -80t-87 -29q-31 0 -53 7.5t-39 19.5v61q17 -17 39.5 -26
t47.5 -9q28 0 48 14t20 42q0 27 -20.5 41.5t-49.5 14.5q-21 0 -39 -4t-34 -10v186h184v-56h-133v-68q13 5 33 5zM74 0l429 614h67l-429 -614h-67z" />
    <glyph glyph-name="uni215E" unicode="&#x215e;" horiz-adv-x="616" 
d="M469 45q25 0 41.5 14t16.5 37q0 22 -16.5 36t-41.5 14q-26 0 -42 -14t-16 -36q0 -23 16 -37t42 -14zM469 198q21 0 35 12.5t14 32.5t-14 32.5t-35 12.5q-22 0 -36.5 -12.5t-14.5 -32.5t14.5 -32.5t36.5 -12.5zM469 -5q-51 0 -85.5 25.5t-34.5 70.5q0 31 17 51.5t42 28.5
q-22 10 -35 29t-13 44q0 45 32 69t77 24q22 0 41.5 -6t34.5 -18t23.5 -29.5t8.5 -39.5q0 -25 -13.5 -44t-34.5 -29q25 -8 42 -28.5t17 -51.5q0 -45 -34 -70.5t-85 -25.5zM34 282l127 276h-150v56h240v-2l-151 -330h-66zM23 0l429 614h67l-429 -614h-67z" />
    <glyph glyph-name="minus" unicode="&#x2212;" horiz-adv-x="540" 
d="M467 328v-62h-394v62h394z" />
    <glyph glyph-name="uni2219" unicode="&#x2219;" horiz-adv-x="176" 
d="M34 262q0 23 15.5 39t38.5 16q22 0 37.5 -16t15.5 -39t-15.5 -38.5t-37.5 -15.5q-23 0 -38.5 15.5t-15.5 38.5z" />
    <glyph glyph-name="approxequal" unicode="&#x2248;" horiz-adv-x="551" 
d="M79 370q28 22 54.5 31t51.5 9t47 -6.5t43 -14t42.5 -14t46.5 -6.5t52 10t57 33v-61q-30 -23 -57 -32.5t-52 -9.5t-47 6.5t-43 14.5t-42.5 14.5t-46.5 6.5t-51.5 -10t-54.5 -33v62zM79 245q28 23 54.5 32t51.5 9t47 -6.5t43 -14.5t42.5 -14.5t46.5 -6.5t52 10t57 33v-61
q-30 -23 -57 -32t-52 -9t-47 6.5t-43 14t-42.5 14t-46.5 6.5q-52 0 -106 -42v61z" />
    <glyph glyph-name="notequal" unicode="&#x2260;" horiz-adv-x="551" 
d="M317 395l68 93h59l-68 -93h97v-57h-139l-60 -82h199v-57h-240l-67 -92h-59l67 92h-95v57h136l60 82h-196v57h238z" />
    <glyph glyph-name="lessequal" unicode="&#x2264;" horiz-adv-x="427" 
d="M360 503v-68l-230 -90l230 -91v-67l-297 121v74zM360 153v-62h-297v62h297z" />
    <glyph glyph-name="greaterequal" unicode="&#x2265;" horiz-adv-x="427" 
d="M67 187v67l229 91l-229 90v68l297 -121v-74zM67 91v62h297v-62h-297z" />
    <glyph glyph-name="i.dot" horiz-adv-x="209" 
d="M67 0v444h75v-444h-75zM153 578q0 -20 -14 -34t-34 -14t-34 14t-14 34t14 34t34 14t34 -14t14 -34z" />
    <glyph glyph-name="zero.lt" horiz-adv-x="520" 
d="M260 -9q-51 0 -93 23t-72 65t-46.5 100t-16.5 128t16.5 128t46.5 100t72 65t93 23t93 -23t72 -65t46.5 -100t16.5 -128t-16.5 -128t-46.5 -100t-72 -65t-93 -23zM260 552q-38 0 -66 -18t-47.5 -50.5t-29 -77.5t-9.5 -99t9.5 -99t29 -77.5t47.5 -50.5t66 -18q37 0 65.5 18
t47.5 50.5t28.5 77.5t9.5 99t-9.5 99t-28.5 77.5t-47.5 50.5t-65.5 18z" />
    <glyph glyph-name="one.lt" horiz-adv-x="520" 
d="M243 70v450l-172 -88v80l202 103h47v-545h154v-70h-406v70h175z" />
    <glyph glyph-name="two.lt" horiz-adv-x="520" 
d="M450 0h-406v4l188 231q24 28 44.5 54t36 51.5t24.5 51.5t9 55q0 47 -28 76.5t-85 29.5q-54 0 -98.5 -26t-76.5 -59v80q32 32 79 53.5t102 21.5q85 0 134.5 -46.5t49.5 -126.5q0 -33 -10.5 -63.5t-27.5 -60.5t-40.5 -60t-48.5 -61l-113 -135h267v-70z" />
    <glyph glyph-name="three.lt" horiz-adv-x="520" 
d="M445 614v-3l-164 -244q36 -5 66.5 -20t53 -38t35.5 -54.5t13 -68.5q0 -45 -17 -81.5t-46.5 -62t-68.5 -39t-82 -13.5q-61 0 -102 14t-72 37v84q35 -33 78.5 -49.5t91.5 -16.5q31 0 58 8.5t46.5 24.5t31 39.5t11.5 54.5q0 34 -15.5 59.5t-43 42.5t-64.5 24.5t-79 6.5v3
l149 222h-260v70h380z" />
    <glyph glyph-name="four.lt" horiz-adv-x="520" 
d="M318 205v148h73v-148h102v-66h-102v-139h-73v139h-289v4l216 471h78l-187 -409h182z" />
    <glyph glyph-name="five.lt" horiz-adv-x="520" 
d="M233 385q47 0 88 -13t71.5 -38.5t48 -62t17.5 -82.5q0 -47 -17.5 -83.5t-48.5 -62t-72.5 -39t-89.5 -13.5q-54 0 -94 13t-71 36v85q71 -66 162 -66q32 0 60.5 8.5t50.5 25t34.5 41t12.5 55.5q0 30 -13 54t-34.5 40.5t-50.5 25.5t-61 9q-44 0 -73.5 -8t-62.5 -21v325h335
v-70h-270v-170q14 5 35 8t43 3z" />
    <glyph glyph-name="six.lt" horiz-adv-x="520" 
d="M260 -9q-45 0 -83 16t-65.5 44t-43.5 66t-16 83q0 38 12 77.5t42 92.5l140 244h81l-129 -224q12 8 30.5 13t36.5 5q44 0 81.5 -16t64.5 -44t42 -66t15 -82q0 -45 -16 -83t-43.5 -66t-65.5 -44t-83 -16zM396 200q0 30 -10.5 55.5t-28.5 44.5t-43 30t-54 11t-54 -11
t-43 -30t-28.5 -44.5t-10.5 -55.5t10.5 -56t28.5 -44.5t43 -29.5t54 -11t54 11t43 29.5t28.5 44.5t10.5 56z" />
    <glyph glyph-name="seven.lt" horiz-adv-x="520" 
d="M131 0l250 544h-331v70h439v-3l-279 -611h-79z" />
    <glyph glyph-name="eight.lt" horiz-adv-x="520" 
d="M261 55q30 0 55 8.5t43.5 24t29 37.5t10.5 48t-10.5 47.5t-29 37t-43.5 24t-55 8.5q-29 0 -54 -8.5t-43.5 -24t-29 -37t-10.5 -47.5t10.5 -48t29 -37.5t43.5 -24t54 -8.5zM261 356q49 0 82.5 28t33.5 73q0 46 -33.5 74t-82.5 28q-48 0 -81.5 -28t-33.5 -74
q0 -45 33.5 -73t81.5 -28zM261 -9q-45 0 -84 12.5t-67.5 35.5t-44.5 55.5t-16 72.5q0 60 35 101t86 55q-43 15 -71 51t-28 87q0 37 15 67t40.5 51t60.5 32.5t74 11.5q40 0 75 -11.5t60.5 -32.5t40.5 -51t15 -67q0 -51 -28 -87t-71 -51q51 -14 86 -55t35 -101
q0 -40 -16.5 -72.5t-45 -55.5t-67.5 -35.5t-84 -12.5z" />
    <glyph glyph-name="nine.lt" horiz-adv-x="520" 
d="M260 623q45 0 83 -16t66 -44t43.5 -66t15.5 -83q0 -38 -12 -77.5t-42 -92.5l-140 -244h-81l129 224q-12 -8 -30.5 -13t-36.5 -5q-44 0 -81.5 16t-64.5 44t-42 66t-15 82q0 45 16 83t43.5 66t65.5 44t83 16zM124 414q0 -30 10.5 -55.5t28.5 -44.5t43 -30t54 -11t54 11
t43 30t28.5 44.5t10.5 55.5t-10.5 56t-28.5 44.5t-43 29.5t-54 11t-54 -11t-43 -29.5t-28.5 -44.5t-10.5 -56z" />
    <glyph glyph-name="backslash.cap" horiz-adv-x="333" 
d="M253 -64l-248 734h75l248 -734h-75z" />
    <glyph glyph-name="periodcentered.cap" horiz-adv-x="176" 
d="M34 302q0 23 15.5 39t38.5 16q22 0 37.5 -16t15.5 -39t-15.5 -38.5t-37.5 -15.5q-23 0 -38.5 15.5t-15.5 38.5z" />
    <glyph glyph-name="bullet.cap" horiz-adv-x="343" 
d="M308 301q0 -30 -10.5 -55t-29.5 -43t-44 -28t-53 -10q-29 0 -53.5 10t-43 28t-29 43t-10.5 55t10.5 55t29 43t43 28t53.5 10q28 0 53 -10t44 -28t29.5 -43t10.5 -55z" />
    <glyph glyph-name="exclamdown.cap" horiz-adv-x="203" 
d="M48 565q0 23 15.5 38.5t37.5 15.5q23 0 38.5 -15.5t15.5 -38.5t-15.5 -39t-38.5 -16q-22 0 -37.5 16t-15.5 39zM128 421l18 -421h-89l17 421h54z" />
    <glyph glyph-name="questiondown.cap" horiz-adv-x="414" 
d="M190 301q-13 -15 -28 -30t-27.5 -31.5t-21 -35.5t-8.5 -41q0 -47 28 -73.5t83 -26.5t100 27t77 62v-82q-31 -33 -78.5 -56t-102.5 -23q-86 0 -135 45.5t-49 125.5q0 28 9.5 52t24.5 45.5t33 41t36 38.5q26 27 34 45.5t9 36.5h73q-1 -19 -4.5 -34t-10 -28.5t-17 -27.5
t-25.5 -30zM267 565q0 -23 -15.5 -39t-37.5 -16q-23 0 -38.5 16t-15.5 39t15.5 38.5t38.5 15.5q22 0 37.5 -15.5t15.5 -38.5z" />
    <glyph glyph-name="slash.cap" horiz-adv-x="333" 
d="M328 670l-248 -734h-75l248 734h75z" />
    <glyph glyph-name="asterisk.ss01" horiz-adv-x="332" 
d="M-257 607l72 -41v83h36v-83l72 41l18 -30l-73 -42l73 -42l-18 -30l-72 41v-84h-36v84l-72 -41l-18 30l72 42l-72 42z" />
    <glyph glyph-name="colon.tab" horiz-adv-x="260" 
d="M76 49q0 23 15.5 39t38.5 16q22 0 37.5 -16t15.5 -39t-15.5 -38.5t-37.5 -15.5q-23 0 -38.5 15.5t-15.5 38.5zM76 363q0 23 15.5 39t38.5 16q22 0 37.5 -16t15.5 -39t-15.5 -38.5t-37.5 -15.5q-23 0 -38.5 15.5t-15.5 38.5z" />
    <glyph glyph-name="comma.tab" horiz-adv-x="260" 
d="M120 -1q-19 3 -31.5 15.5t-12.5 34.5q0 23 15.5 38t38.5 15t38 -15t15 -43q0 -16 -6.5 -32.5t-15.5 -30.5l-53 -88h-51z" />
    <glyph glyph-name="period.tab" horiz-adv-x="260" 
d="M77 49q0 23 15.5 39t38.5 16q22 0 37.5 -16t15.5 -39t-15.5 -38.5t-37.5 -15.5q-23 0 -38.5 15.5t-15.5 38.5z" />
    <glyph glyph-name="semicolon.tab" horiz-adv-x="260" 
d="M120 -1q-19 3 -31.5 15.5t-12.5 34.5q0 23 15.5 38t38.5 15t38 -15t15 -43q0 -16 -6.5 -32.5t-15.5 -30.5l-53 -88h-51zM76 363q0 23 15.5 39t38.5 16q22 0 37.5 -16t15.5 -39t-15.5 -38.5t-37.5 -15.5q-23 0 -38.5 15.5t-15.5 38.5z" />
    <glyph glyph-name="braceleft.cap" horiz-adv-x="339" 
d="M175 39q0 -37 36 -37h105v-68h-104q-49 0 -80 31t-31 81v183q0 37 -35 37h-46v70h46q35 0 35 37v183q0 50 31 81t80 31h104v-68h-105q-36 0 -36 -37v-185q0 -29 -12 -47.5t-31 -29.5q19 -11 31 -29.5t12 -47.5v-185z" />
    <glyph glyph-name="braceright.cap" horiz-adv-x="339" 
d="M164 224q0 29 12 47.5t31 29.5q-19 11 -31 29.5t-12 47.5v185q0 37 -36 37h-105v68h104q49 0 80 -31t31 -81v-183q0 -37 35 -37h46v-70h-46q-35 0 -35 -37v-183q0 -50 -31 -81t-80 -31h-104v68h105q36 0 36 37v185z" />
    <glyph glyph-name="bracketleft.cap" horiz-adv-x="313" 
d="M290 2v-68h-217v734h217v-68h-145v-598h145z" />
    <glyph glyph-name="bracketright.cap" horiz-adv-x="313" 
d="M23 600v68h217v-734h-217v68h145v598h-145z" />
    <glyph glyph-name="parenleft.cap" horiz-adv-x="321" 
d="M30 301q0 69 19 128.5t53.5 107.5t84 81.5t111.5 49.5v-80q-40 -10 -75 -34.5t-61.5 -61.5t-41.5 -85t-15 -106t15 -106t41.5 -85t61.5 -61.5t75 -34.5v-80q-62 16 -111.5 49.5t-84 81.5t-53.5 107.5t-19 128.5z" />
    <glyph glyph-name="parenright.cap" horiz-adv-x="321" 
d="M291 301q0 -69 -19 -128.5t-53.5 -107.5t-84.5 -81.5t-111 -49.5v80q40 10 75 34.5t61.5 61.5t41.5 85t15 106t-15 106t-41.5 85t-61.5 61.5t-75 34.5v80q61 -16 111 -49.5t84.5 -81.5t53.5 -107.5t19 -128.5z" />
    <glyph glyph-name="emdash.cap" horiz-adv-x="846" 
d="M806 332v-61h-766v61h766z" />
    <glyph glyph-name="endash.cap" horiz-adv-x="475" 
d="M435 332v-61h-395v61h395z" />
    <glyph glyph-name="hyphen.cap" horiz-adv-x="321" 
d="M281 336v-70h-241v70h241z" />
    <glyph glyph-name="guillemotleft.cap" horiz-adv-x="357" 
d="M25 305l92 148h70l-92 -148l92 -148h-70zM170 305l92 148h70l-92 -148l92 -148h-70z" />
    <glyph glyph-name="guillemotright.cap" horiz-adv-x="357" 
d="M262 305l-92 148h70l92 -148l-92 -148h-70zM117 305l-92 148h70l92 -148l-92 -148h-70z" />
    <glyph glyph-name="guilsinglleft.cap" horiz-adv-x="215" 
d="M25 305l92 148h73l-92 -148l92 -148h-73z" />
    <glyph glyph-name="guilsinglright.cap" horiz-adv-x="215" 
d="M117 306l-92 148h73l92 -148l-92 -148h-73z" />
    <glyph glyph-name="slash_2" horiz-adv-x="380" 
d="M1287 487l-1447 -400l-12 43l1447 400z" />
    <glyph glyph-name="slash_3" horiz-adv-x="380" 
d="M1798 482l-1941 -397l-10 45l1941 397z" />
    <glyph glyph-name="slash_4" horiz-adv-x="380" 
d="M2316 482l-2448 -397l-9 45l2448 397z" />
    <glyph glyph-name="slash_5" horiz-adv-x="380" 
d="M2838 478l-2964 -393l-7 45l2964 393z" />
    <glyph glyph-name="slash_6" horiz-adv-x="380" 
d="M3363 480l-3485 -397l-6 47l3485 397z" />
    <glyph glyph-name="hyphen_alt1.ss01" horiz-adv-x="321" 
d="M281 326v-70h-241v70h241z" />
    <glyph glyph-name="space.tab" horiz-adv-x="260" 
 />
    <glyph glyph-name="space_dotbelowcomb" 
d="M298 -108q0 -20 -14 -34t-34 -14t-34 14t-14 34t14 34t34 14t34 -14t14 -34z" />
    <glyph glyph-name="space_uni0326" 
d="M243 -137q-17 2 -28.5 14t-11.5 30q0 21 14.5 34.5t35.5 13.5q20 0 34.5 -13.5t14.5 -36.5q0 -17 -7 -30.5t-15 -26.5l-29 -49h-47z" />
    <glyph glyph-name="space_uni0326.alt" 
d="M257 615q18 -2 29.5 -14t11.5 -32q0 -21 -14.5 -34.5t-36.5 -13.5q-21 0 -35.5 14t-14.5 37q0 17 6.5 31t15.5 28l29 49h49z" />
    <glyph glyph-name="cent.lt" horiz-adv-x="520" 
d="M259 4q-37 7 -68.5 26t-54.5 48t-36 68t-13 86t13 85.5t36 68t54.5 48t68.5 25.5v89h68v-86q26 -3 50 -11.5t43 -24.5v-76q-24 24 -53 35t-61 11q-30 0 -56 -11.5t-45.5 -32.5t-30.5 -51.5t-11 -68.5t11 -68.5t30.5 -51.5t45.5 -32.5t56 -11.5q32 0 61 11t53 35v-76
q-19 -17 -43 -25.5t-50 -10.5v-89h-68v91z" />
    <glyph glyph-name="dollar.lt" horiz-adv-x="520" 
d="M225 9q-48 4 -87 18.5t-65 34.5v82q40 -35 86 -51t96 -16q56 0 89.5 22t33.5 67q0 38 -23 58t-68 39l-85 33q-26 10 -50 23t-42 31t-28.5 43t-10.5 60q0 34 12 60.5t32.5 45t48.5 30t61 15.5v91h69v-91q75 -9 130 -46v-80q-35 28 -75 44t-91 16q-48 0 -81 -20.5
t-33 -63.5q0 -37 23 -55.5t64 -33.5l92 -36q66 -26 97 -64t31 -98q0 -66 -44 -106.5t-113 -49.5v-100h-69v98z" />
    <glyph glyph-name="Euro.lt" horiz-adv-x="520" 
d="M90 270q-1 9 -1 18v19q0 8 0.5 16t0.5 16h-54v60h62q12 52 36 93.5t57.5 70.5t75.5 44.5t89 15.5q39 0 70.5 -9.5t56.5 -26.5v-78q-55 45 -127 45q-65 0 -112.5 -41.5t-67.5 -113.5h205l-12 -60h-203q-1 -8 -1 -16v-16q0 -10 0.5 -19t1.5 -18h191l-12 -60h-168
q20 -69 67 -109.5t111 -40.5q72 0 127 45v-78q-25 -17 -56.5 -26.5t-70.5 -9.5q-47 0 -88 15t-75 43.5t-58 69t-36 91.5h-63v60h54z" />
    <glyph glyph-name="florin.lt" horiz-adv-x="520" 
d="M235 344l25 138q12 66 52 103.5t103 37.5q35 0 61 -12v-68q-26 14 -60 14q-32 0 -53.5 -21t-28.5 -60l-24 -132h97v-63h-108l-56 -320q-11 -64 -43 -101t-97 -37q-35 0 -60 12v68q13 -7 29 -10.5t30 -3.5q33 0 46.5 21t20.5 57l55 314h-71v63h82z" />
    <glyph glyph-name="sterling.lt" horiz-adv-x="520" 
d="M144 334v75q0 49 14 88.5t40.5 67.5t64 43t84.5 15q32 0 61 -8t48 -21v-69q-21 14 -47.5 22.5t-61.5 8.5q-62 0 -96 -39.5t-34 -111.5v-71h154v-63h-154v-115q0 -26 -6 -51t-17 -40h277v-65h-410v65h61q10 17 16 37.5t6 53.5v115h-83v63h83z" />
    <glyph glyph-name="yen.lt" horiz-adv-x="520" 
d="M192 323l-168 291h84l153 -275l153 275h81l-168 -291h128v-59h-157v-70h157v-60h-157v-134h-77v134h-157v60h157v70h-157v59h128z" />
    <glyph glyph-name="approxequal.lt" horiz-adv-x="520" 
d="M64 370q28 22 54.5 31t51.5 9t47 -6.5t43 -14t42.5 -14t46.5 -6.5t52 10t57 33v-61q-30 -23 -57 -32.5t-52 -9.5t-47 6.5t-43 14.5t-42.5 14.5t-46.5 6.5t-51.5 -10t-54.5 -33v62zM64 245q28 23 54.5 32t51.5 9t47 -6.5t43 -14.5t42.5 -14.5t46.5 -6.5t52 10t57 33v-61
q-30 -23 -57 -32t-52 -9t-47 6.5t-43 14t-42.5 14t-46.5 6.5q-52 0 -106 -42v61z" />
    <glyph glyph-name="divide.lt" horiz-adv-x="520" 
d="M458 328v-62h-394v62h394zM211 458q0 21 14.5 36t35.5 15t36 -15t15 -36t-15 -36t-36 -15t-35.5 15t-14.5 36zM211 136q0 21 14.5 36t35.5 15t36 -15t15 -36t-15 -36t-36 -15t-35.5 15t-14.5 36z" />
    <glyph glyph-name="equal.lt" horiz-adv-x="520" 
d="M458 257v-58h-394v58h394zM458 397v-60h-394v60h394z" />
    <glyph glyph-name="greater.lt" horiz-adv-x="520" 
d="M111 105v71l238 119l-238 119v71l297 -151v-78z" />
    <glyph glyph-name="greaterequal.lt" horiz-adv-x="520" 
d="M111 187v67l229 91l-229 90v68l297 -121v-74zM111 91v62h297v-62h-297z" />
    <glyph glyph-name="less.lt" horiz-adv-x="520" 
d="M408 485v-71l-238 -119l238 -119v-71l-296 151v78z" />
    <glyph glyph-name="lessequal.lt" horiz-adv-x="520" 
d="M408 503v-68l-230 -90l230 -91v-67l-297 121v74zM408 153v-62h-297v62h297z" />
    <glyph glyph-name="minus.lt" horiz-adv-x="520" 
d="M458 328v-62h-394v62h394z" />
    <glyph glyph-name="multiply.lt" horiz-adv-x="520" 
d="M139 458l120 -122l122 122l43 -42l-122 -121l122 -122l-43 -43l-122 122l-120 -122l-43 43l122 122l-122 121z" />
    <glyph glyph-name="notequal.lt" horiz-adv-x="520" 
d="M302 395l68 93h59l-68 -93h97v-57h-139l-60 -82h199v-57h-240l-67 -92h-59l67 92h-95v57h136l60 82h-196v57h238z" />
    <glyph glyph-name="percent.lt" horiz-adv-x="520" 
d="M19 501q0 25 9.5 47.5t26 39t38.5 26t48 9.5q25 0 47.5 -9.5t39 -26t26 -39t9.5 -47.5t-9.5 -47t-26 -38.5t-39 -26t-47.5 -9.5q-26 0 -48 9.5t-38.5 26t-26 38.5t-9.5 47zM72 501q0 -29 20 -49t49 -20t49 20t20 49t-20 49.5t-49 20.5t-49 -20.5t-20 -49.5zM501 113
q0 -26 -9.5 -48t-26 -38.5t-38.5 -26t-47 -9.5q-26 0 -48 9.5t-39 26t-26.5 38.5t-9.5 48q0 25 9.5 47t26.5 38.5t39 26t48 9.5q25 0 47 -9.5t38.5 -26t26 -38.5t9.5 -47zM448 113q0 29 -19.5 49t-48.5 20t-49.5 -20t-20.5 -49t20.5 -49.5t49.5 -20.5t48.5 20.5t19.5 49.5z
M483 614l-383 -614h-62l383 614h62z" />
    <glyph glyph-name="perthousand.lt" horiz-adv-x="800" 
d="M23 501q0 25 9.5 47.5t26 39t38.5 26t48 9.5q25 0 47.5 -9.5t39 -26t26 -39t9.5 -47.5t-9.5 -47t-26 -38.5t-39 -26t-47.5 -9.5q-26 0 -48 9.5t-38.5 26t-26 38.5t-9.5 47zM76 501q0 -29 20 -49t49 -20t49 20t20 49t-20 49.5t-49 20.5t-49 -20.5t-20 -49.5zM505 113
q0 -26 -9.5 -48t-26 -38.5t-38.5 -26t-47 -9.5q-26 0 -48 9.5t-39 26t-26.5 38.5t-9.5 48q0 25 9.5 47t26.5 38.5t39 26t48 9.5q25 0 47 -9.5t38.5 -26t26 -38.5t9.5 -47zM452 113q0 29 -19.5 49t-48.5 20t-49.5 -20t-20.5 -49t20.5 -49.5t49.5 -20.5t48.5 20.5t19.5 49.5z
M487 614l-383 -614h-62l383 614h62zM776 113q0 -26 -9.5 -48t-26 -38.5t-38.5 -26t-47 -9.5q-26 0 -48 9.5t-38.5 26t-26 38.5t-9.5 48q0 25 9.5 47t26 38.5t38.5 26t48 9.5q25 0 47 -9.5t38.5 -26t26 -38.5t9.5 -47zM724 113q0 29 -20 49t-49 20t-49 -20t-20 -49t20 -49.5
t49 -20.5t49 20.5t20 49.5z" />
    <glyph glyph-name="plus.lt" horiz-adv-x="520" 
d="M292 328h166v-62h-166v-166h-62v166h-166v62h166v166h62v-166z" />
    <glyph glyph-name="plusminus.lt" horiz-adv-x="520" 
d="M291 389h164v-62h-164v-129h-62v129h-163v62h163v129h62v-129zM455 150v-62h-389v62h389z" />
    <glyph glyph-name="percent.ss01" horiz-adv-x="323" 
d="M40 547q0 -15 10 -26t27 -11q16 0 26.5 11t10.5 26q0 16 -10.5 26.5t-26.5 10.5q-17 0 -27 -10.5t-10 -26.5zM282 614l-201 -332h-40l201 332h40zM149 547q0 -30 -21.5 -51t-50.5 -21q-31 0 -51.5 21t-20.5 51t20.5 51t51.5 21q29 0 50.5 -21t21.5 -51zM209 349
q0 -15 10 -26t27 -11q16 0 26.5 11t10.5 26t-10.5 26t-26.5 11q-17 0 -27 -10.5t-10 -26.5zM318 349q0 -30 -21.5 -51t-50.5 -21q-31 0 -51.5 21t-20.5 51t20.5 51t51.5 21q29 0 50.5 -21t21.5 -51z" />
    <glyph glyph-name="bar.cap" horiz-adv-x="219" 
d="M146 670v-734h-73v734h73z" />
    <glyph glyph-name="at.cap" horiz-adv-x="774" 
d="M517 230q-1 -5 -1.5 -9t-0.5 -8q0 -20 11 -28.5t31 -8.5q54 0 89.5 48.5t35.5 138.5q0 54 -20.5 98.5t-56.5 75.5t-85.5 48t-108.5 17q-71 0 -129 -24.5t-100 -67.5t-65 -102t-23 -128q0 -80 28.5 -134.5t74 -88.5t102.5 -48.5t113 -14.5q67 0 120.5 13t96.5 33v-57
q-38 -18 -94.5 -31.5t-122.5 -13.5q-73 0 -141.5 19.5t-121.5 61.5t-85 106.5t-32 154.5q0 78 27.5 147t77 120.5t119.5 81t155 29.5q74 0 135 -22.5t104.5 -62t67.5 -93.5t24 -117q0 -61 -16.5 -106.5t-44 -75.5t-62.5 -44.5t-72 -14.5q-35 0 -62 15t-38 43
q-15 -25 -43.5 -41t-58.5 -16q-32 0 -56.5 11.5t-41 31.5t-25.5 47t-9 58q0 41 13 79t37 67.5t57.5 47t74.5 17.5q34 0 57 -14.5t34 -31.5l7 37h67zM473 367q-8 23 -27.5 38t-46.5 15t-48.5 -12.5t-37 -33.5t-23.5 -47t-8 -53q0 -40 20.5 -64.5t56.5 -24.5q31 0 53 17t38 41
z" />
    <glyph glyph-name="commaaccentcomb.alt" 
d="M257 615q18 -2 29.5 -14t11.5 -32q0 -21 -14.5 -34.5t-36.5 -13.5q-21 0 -35.5 14t-14.5 37q0 17 6.5 31t15.5 28l29 49h49z" />
    <glyph glyph-name="dieresiscomb.cap" 
d="M133 722q0 20 13.5 33t33.5 13q19 0 32.5 -13t13.5 -33t-13.5 -33t-32.5 -13q-20 0 -33.5 13t-13.5 33zM274 722q0 20 13 33t32 13q20 0 33.5 -13t13.5 -33t-13.5 -33t-33.5 -13q-19 0 -32 13t-13 33z" />
    <glyph glyph-name="dotaccentcomb.cap" 
d="M298 721q0 -20 -14 -34t-34 -14t-34 14t-14 34t14 34.5t34 14.5t34 -14.5t14 -34.5z" />
    <glyph glyph-name="gravecomb.cap" 
d="M166 785h87l80 -117h-75z" />
    <glyph glyph-name="acutecomb.cap" 
d="M246 785h87l-91 -117h-76z" />
    <glyph glyph-name="hungarumlautcomb.cap" 
d="M189 785h66l-68 -117h-65zM311 785h67l-68 -117h-65z" />
    <glyph glyph-name="circumflexcomb.cap" 
d="M309 669l-59 71l-59 -71h-68l92 122h70l92 -122h-68z" />
    <glyph glyph-name="caroncomb.cap" 
d="M191 787l59 -71l59 71h68l-92 -121h-70l-92 121h68z" />
    <glyph glyph-name="brevecomb.cap" 
d="M249 666q-51 0 -83 30.5t-32 89.5h57q0 -32 16 -48t42 -16t42.5 16t16.5 48h57q0 -59 -31.5 -89.5t-84.5 -30.5z" />
    <glyph glyph-name="ringcomb.cap" 
d="M337 734q0 -36 -25 -61t-62 -25t-62 25t-25 61q0 37 25 62t62 25t62 -25t25 -62zM295 734q0 20 -13 33t-32 13t-32 -13t-13 -33q0 -19 13 -32t32 -13t32 13t13 32z" />
    <glyph glyph-name="tildecomb.cap" 
d="M384 784q0 -54 -19 -86.5t-57 -32.5q-18 0 -32.5 8.5t-27.5 19t-25 19.5t-25 9q-34 0 -34 -53h-49q0 54 19 86.5t57 32.5q19 0 33.5 -9t27 -19.5t24.5 -19t26 -8.5q32 0 34 53h48z" />
    <glyph glyph-name="macroncomb.cap" 
d="M356 732v-61h-213v61h213z" />
    <glyph glyph-name="caron.Slovak" 
d="M231 650h60l-33 -164h-60z" />
    <glyph glyph-name="cedilla.alt" 
d="M245 -51h74l-69 -132h-71z" />
    <glyph glyph-name="acute.cap" 
d="M246 785h87l-91 -117h-76z" />
    <glyph glyph-name="breve.cap" 
d="M249 666q-51 0 -83 30.5t-32 89.5h57q0 -32 16 -48t42 -16t42.5 16t16.5 48h57q0 -59 -31.5 -89.5t-84.5 -30.5z" />
    <glyph glyph-name="caron.cap" 
d="M191 787l59 -71l59 71h68l-92 -121h-70l-92 121h68z" />
    <glyph glyph-name="circumflex.cap" 
d="M309 669l-59 71l-59 -71h-68l92 122h70l92 -122h-68z" />
    <glyph glyph-name="dieresis.cap" 
d="M133 722q0 20 13.5 33t33.5 13q19 0 32.5 -13t13.5 -33t-13.5 -33t-32.5 -13q-20 0 -33.5 13t-13.5 33zM274 722q0 20 13 33t32 13q20 0 33.5 -13t13.5 -33t-13.5 -33t-33.5 -13q-19 0 -32 13t-13 33z" />
    <glyph glyph-name="dotaccent.cap" 
d="M298 721q0 -20 -14 -34t-34 -14t-34 14t-14 34t14 34.5t34 14.5t34 -14.5t14 -34.5z" />
    <glyph glyph-name="grave.cap" 
d="M166 785h87l80 -117h-75z" />
    <glyph glyph-name="hungarumlaut.cap" 
d="M189 785h66l-68 -117h-65zM311 785h67l-68 -117h-65z" />
    <glyph glyph-name="macron.cap" 
d="M356 732v-61h-213v61h213z" />
    <glyph glyph-name="ring.cap" 
d="M337 734q0 -36 -25 -61t-62 -25t-62 25t-25 61q0 37 25 62t62 25t62 -25t25 -62zM295 734q0 20 -13 33t-32 13t-32 -13t-13 -33q0 -19 13 -32t32 -13t32 13t13 32z" />
    <glyph glyph-name="tilde.cap" 
d="M384 784q0 -54 -19 -86.5t-57 -32.5q-18 0 -32.5 8.5t-27.5 19t-25 19.5t-25 9q-34 0 -34 -53h-49q0 54 19 86.5t57 32.5q19 0 33.5 -9t27 -19.5t24.5 -19t26 -8.5q32 0 34 53h48z" />
    <glyph glyph-name="firsttonechinesecomb" 
d="M356 591v-61h-213v61h213z" />
    <glyph glyph-name="firsttonechinesecomb.cap" 
d="M356 591v-61h-213v61h213z" />
    </font>
</defs>
</svg>
