<?xml version="1.0" standalone="no"?>
<!DOCTYPE svg PUBLIC "-//W3C//DTD SVG 1.1//EN" "http://www.w3.org/Graphics/SVG/1.1/DTD/svg11.dtd" >
<svg xmlns="http://www.w3.org/2000/svg">
<metadata>Generated by IcoMoon</metadata>
<defs>
<font id="kpn-ui-icons" horiz-adv-x="1024">
<font-face units-per-em="1024" ascent="960" descent="-64" />
<missing-glyph horiz-adv-x="1024" />
<glyph unicode="&#x20;" horiz-adv-x="512" d="" />
<glyph unicode="&#xe902;" glyph-name="ui-30-seconds-backwords" d="M896 384c0-212.077-171.923-384-384-384s-384 171.923-384 384v0 42.667h85.333v-42.667c0-164.949 133.718-298.667 298.667-298.667s298.667 133.718 298.667 298.667c0 164.949-133.718 298.667-298.667 298.667v0h-110.507l85.333-85.333h-120.32l-98.133 97.707c-3.773 3.937-6.808 8.616-8.859 13.791l-0.101 0.289c-2.024 4.793-3.201 10.366-3.201 16.213s1.176 11.42 3.305 16.495l-0.105-0.281c2.152 5.464 5.187 10.143 8.974 14.095l-0.014-0.015 98.133 97.707h120.32l-85.333-85.333h110.507c212.077 0 384-171.923 384-384v0zM410.453 308.907c-26 0.483-49.503 10.79-67.035 27.352l0.048-0.045v-59.307c19.146-13.167 42.831-21.029 68.353-21.029 1.92 0 3.831 0.045 5.729 0.133l-0.269-0.010c1.787-0.133 3.872-0.209 5.974-0.209 47.128 0 85.333 38.205 85.333 85.333 0 0.074 0 0.147 0 0.221v-0.011c0.008 0.405 0.013 0.882 0.013 1.361 0 31.185-19.68 57.773-47.298 68.023l-0.502 0.163 48.213 96.427h-164.267v-55.893h81.92l-38.4-75.52c32.853 2.133 61.44-8.533 61.44-34.987s-15.36-32-39.253-32zM627.627 256c-61.013 0-102.4 52.48-102.4 128s42.667 128 102.4 128 102.827-52.48 102.827-128-41.813-128-102.827-128zM627.627 312.747c28.587 0 40.107 32.853 40.107 71.253s-11.52 70.827-40.107 70.827-40.107-32.853-40.107-70.827 9.813-71.253 40.107-71.253z" />
<glyph unicode="&#xe903;" glyph-name="ui-30-seconds-forwards" d="M896 426.667v-42.667c0-212.077-171.923-384-384-384s-384 171.923-384 384c0 212.077 171.923 384 384 384v0h110.507l-85.333 85.333h120.32l98.133-97.707c3.773-3.937 6.808-8.616 8.859-13.791l0.101-0.289c2.024-4.793 3.201-10.366 3.201-16.213s-1.176-11.42-3.305-16.495l0.105 0.281c-2.152-5.464-5.187-10.143-8.974-14.095l0.014 0.015-98.133-97.707h-120.32l85.333 85.333h-110.507c-164.949 0-298.667-133.718-298.667-298.667s133.718-298.667 298.667-298.667c164.949 0 298.667 133.718 298.667 298.667v0 42.667zM509.013 507.734h-164.267v-55.893h81.92l-38.4-75.52c32.853 2.133 61.44-8.533 61.44-34.987s-14.080-31.147-37.973-31.147c-26 0.483-49.503 10.79-67.035 27.352l0.048-0.045v-59.307c19.5-13.893 43.809-22.212 70.061-22.212 0.869 0 1.737 0.009 2.601 0.027l-0.129-0.002c1.787-0.133 3.872-0.209 5.974-0.209 47.128 0 85.333 38.205 85.333 85.333 0 0.074 0 0.147 0 0.221v-0.011c0.008 0.405 0.013 0.882 0.013 1.361 0 31.185-19.68 57.773-47.298 68.023l-0.502 0.163 48.213 96.427zM627.627 512c61.013 0 102.827-52.48 102.827-128s-42.667-128-102.827-128-102.4 52.48-102.4 128 41.387 128 102.4 128zM627.627 455.254c-28.587 0-40.107-32.853-40.107-70.827s11.52-71.253 40.107-71.253 40.107 32.853 40.107 71.253-11.52 70.4-40.107 70.4z" />
<glyph unicode="&#xe904;" glyph-name="ui-account-diap" d="M817.92 128c74.433 76.713 120.32 181.487 120.32 296.978 0 235.641-191.025 426.667-426.667 426.667s-426.667-191.025-426.667-426.667c0-115.492 45.887-220.266 120.423-297.085l-0.103 0.107 2.56-2.56c77.493-78.983 185.35-127.938 304.64-127.938s227.147 48.955 304.574 127.871l0.066 0.067zM512 768c188.513 0 341.333-152.82 341.333-341.333v0c0-0.184 0.001-0.401 0.001-0.619 0-71.376-22.185-137.571-60.037-192.064l0.729 1.11-26.027 56.747c-21.471 42.326-64.668 70.827-114.522 70.827-0.088 0-0.177 0-0.265 0h-280.306c-0.075 0-0.163 0-0.252 0-49.854 0-93.051-28.501-114.186-70.099l-0.336-0.728-28.16-56.747c-37.122 53.384-59.307 119.578-59.307 190.955 0 0.218 0 0.435 0.001 0.653v-0.034c0 188.513 152.82 341.333 341.333 341.333v0zM512 384c94.257 0 170.667 76.41 170.667 170.667s-76.41 170.667-170.667 170.667c-94.257 0-170.667-76.41-170.667-170.667v0c0-94.257 76.41-170.667 170.667-170.667v0z" />
<glyph unicode="&#xe905;" glyph-name="ui-account" d="M817.92 128c74.561 76.737 120.533 181.599 120.533 297.198 0 235.641-191.025 426.667-426.667 426.667s-426.667-191.025-426.667-426.667c0-115.599 45.973-220.461 120.632-297.301l-0.099 0.102c77.513-79.113 185.456-128.156 304.853-128.156s227.341 49.043 304.783 128.084l0.070 0.072zM512 768c188.513 0 341.333-152.82 341.333-341.333v0c0-0.184 0.001-0.401 0.001-0.619 0-71.376-22.185-137.571-60.037-192.064l0.729 1.11-26.027 56.747c-21.471 42.326-64.668 70.827-114.522 70.827-0.088 0-0.177 0-0.265 0h-280.306c-0.075 0-0.163 0-0.252 0-49.854 0-93.051-28.501-114.186-70.099l-0.336-0.728-28.16-56.747c-37.122 53.384-59.307 119.578-59.307 190.955 0 0.218 0 0.435 0.001 0.653v-0.034c0 188.513 152.82 341.333 341.333 341.333v0zM290.987 166.827l42.667 85.333c7.182 14.031 21.541 23.468 38.103 23.468 0.104 0 0.209 0 0.313-0.001h278.171c0.088 0.001 0.193 0.001 0.297 0.001 16.562 0 30.921-9.437 37.991-23.227l0.112-0.24 42.667-85.333c-59.141-50.493-136.489-81.215-221.013-81.215s-161.872 30.722-221.487 81.61l0.474-0.395zM512 384c94.257 0 170.667 76.41 170.667 170.667s-76.41 170.667-170.667 170.667c-94.257 0-170.667-76.41-170.667-170.667v0c0-94.257 76.41-170.667 170.667-170.667v0zM512 640c47.128 0 85.333-38.205 85.333-85.333s-38.205-85.333-85.333-85.333c-47.128 0-85.333 38.205-85.333 85.333v0c0 47.128 38.205 85.333 85.333 85.333v0z" />
<glyph unicode="&#xe906;" glyph-name="ui-add" d="M554.667 469.334h128v-85.333h-128v-128h-85.333v128h-128v85.333h128v128h85.333zM938.667 426.667c0-235.641-191.025-426.667-426.667-426.667s-426.667 191.025-426.667 426.667c0 235.641 191.025 426.667 426.667 426.667v0c235.641 0 426.667-191.025 426.667-426.667v0zM853.333 426.667c0 188.513-152.82 341.333-341.333 341.333s-341.333-152.82-341.333-341.333c0-188.513 152.82-341.333 341.333-341.333v0c188.513 0 341.333 152.82 341.333 341.333v0z" />
<glyph unicode="&#xe907;" glyph-name="ui-arrow-down" d="M725.333 366.507l-183.040-183.467c-3.937-3.773-8.616-6.808-13.791-8.859l-0.289-0.101c-4.771-2.163-10.345-3.423-16.213-3.423s-11.443 1.26-16.466 3.525l0.253-0.102c-5.464 2.152-10.143 5.187-14.095 8.974l0.015-0.014-183.040 183.467v120.32l170.667-170.667v366.507h85.333v-366.507l170.667 170.667z" />
<glyph unicode="&#xe908;" glyph-name="ui-arrow-left" d="M768 469.334v-85.333h-366.507l170.667-170.667h-120.32l-183.467 183.040c-3.773 3.937-6.808 8.616-8.859 13.791l-0.101 0.289c-2.024 4.793-3.201 10.366-3.201 16.213s1.176 11.42 3.305 16.495l-0.105-0.281c2.152 5.464 5.187 10.143 8.974 14.095l-0.014-0.015 183.467 183.040h120.32l-170.667-170.667h366.507z" />
<glyph unicode="&#xe909;" glyph-name="ui-arrow-right" d="M755.627 396.374l-183.467-183.040h-120.32l170.667 170.667h-366.507v85.333h366.507l-170.667 170.667h120.32l183.467-183.040c7.795-7.733 12.621-18.45 12.621-30.293s-4.826-22.56-12.618-30.291l-0.003-0.003z" />
<glyph unicode="&#xe90a;" glyph-name="ui-arrow-up" d="M725.333 366.507l-170.667 170.667v-366.507h-85.333v366.507l-170.667-170.667v120.32l183.040 183.467c3.937 3.773 8.616 6.808 13.791 8.859l0.289 0.101c4.793 2.024 10.366 3.201 16.213 3.201s11.42-1.176 16.495-3.305l-0.281 0.105c5.464-2.152 10.143-5.187 14.095-8.974l-0.015 0.014 183.040-183.467z" />
<glyph unicode="&#xe90b;" glyph-name="ui-arrow-upleft" d="M652.373 225.707l-268.373 268.8v-174.080h-85.333v276.907c0 23.564 19.103 42.667 42.667 42.667v0h276.907v-85.333h-174.080l268.8-268.373z" />
<glyph unicode="&#xe90c;" glyph-name="ui-assemble" d="M916.907 203.094l-328.533 328.107c5.551 19.797 8.812 42.553 8.96 66.048v0.086c0 141.385-114.615 256-256 256v0c-23.58-0.148-46.336-3.409-67.962-9.392l1.829 0.432c-31.222-8.418-58.536-21.599-82.68-38.919l0.76 0.519 62.72-62.293 72.96-73.387c7.753-7.753 12.548-18.463 12.548-30.293 0-23.661-19.181-42.841-42.841-42.841-11.83 0-22.541 4.795-30.293 12.548v0l-73.387 72.96-62.293 62.72c-16.801-23.384-29.982-50.698-37.989-80.144l-0.411-1.776c-5.551-19.797-8.812-42.553-8.96-66.048v-0.086c0-141.385 114.615-256 256-256v0c23.58 0.148 46.336 3.409 67.962 9.392l-1.829-0.432 328.107-328.533c23.204-23.204 55.259-37.555 90.667-37.555 70.815 0 128.222 57.407 128.222 128.222 0 35.408-14.352 67.463-37.555 90.667v0zM856.32 82.347c-7.712-7.668-18.343-12.407-30.080-12.407s-22.368 4.74-30.082 12.409l0.002-0.002-369.493 368.64c-24.37-14.861-53.754-23.842-85.201-24.318l-0.132-0.002c-0.115 0-0.252 0-0.389 0-90.203 0-164.062 69.98-170.247 158.61l-0.030 0.537 36.267-36.267c23.142-23.035 55.055-37.276 90.295-37.276 11.274 0 22.208 1.458 32.624 4.195l-0.892-0.199c45.824 11.497 81.322 46.57 93.237 91.266l0.203 0.894c2.538 9.524 3.996 20.458 3.996 31.732 0 35.239-14.24 67.153-37.281 90.299l0.005-0.005-36.267 37.547c89.168-6.216 159.147-80.074 159.147-170.277 0-0.137 0-0.274 0-0.411v0.021c-0.478-31.579-9.459-60.964-24.747-86.088l0.427 0.755 62.293-61.867 306.347-306.773c7.924-7.753 12.837-18.556 12.837-30.507s-4.913-22.753-12.83-30.499l-0.008-0.008z" />
<glyph unicode="&#xe90d;" glyph-name="ui-asterisk" d="M733.867 725.334l-148.053-256h267.52v-85.333h-267.52l148.053-256h-98.56l-123.307 213.333-123.307-213.333h-98.56l148.053 256h-267.52v85.333h267.52l-148.053 256h98.56l123.307-213.333 123.307 213.333z" />
<glyph unicode="&#xe90e;" glyph-name="ui-audio" d="M725.333 810.667h-85.333c-70.692 0-128-57.308-128-128v0-322.133c-24.379 14.743-53.829 23.467-85.317 23.467-0.006 0-0.011 0-0.017 0h0.001c-94.257 0-170.667-76.41-170.667-170.667s76.41-170.667 170.667-170.667c94.257 0 170.667 76.41 170.667 170.667v0 341.333h128c70.692 0 128 57.308 128 128s-57.308 128-128 128v0zM426.667 128c-47.128 0-85.333 38.205-85.333 85.333s38.205 85.333 85.333 85.333c47.128 0 85.333-38.205 85.333-85.333v0c0-47.128-38.205-85.333-85.333-85.333v0zM725.333 640h-128v42.667c0 23.564 19.103 42.667 42.667 42.667v0h85.333c23.564 0 42.667-19.103 42.667-42.667s-19.103-42.667-42.667-42.667v0z" />
<glyph unicode="&#xe90f;" glyph-name="ui-backspace" d="M742.827 512l-85.333-85.333 85.333-85.333-60.16-60.16-85.333 85.333-85.333-85.333-60.16 60.16 85.333 85.333-85.333 85.333 60.16 60.16 85.333-85.333 85.333 85.333zM938.667 640v-426.667c0-70.692-57.308-128-128-128v0h-426.667c-42.785 0.057-80.644 21.096-103.846 53.378l-0.261 0.382-151.893 213.333c-14.838 20.626-23.729 46.395-23.729 74.24s8.891 53.614 23.99 74.622l-0.261-0.382 152.32 213.333c23.381 32.551 61.056 53.557 103.648 53.76h426.699c70.692 0 128-57.308 128-128v0zM853.333 640c0 23.564-19.103 42.667-42.667 42.667v0h-426.667c-14.208-0.068-26.766-7.070-34.473-17.793l-0.087-0.127-152.747-213.333c-4.946-6.875-7.91-15.465-7.91-24.747s2.964-17.871 7.997-24.874l-0.087 0.127 152.747-213.333c7.794-10.85 20.352-17.852 34.549-17.92h426.678c23.564 0 42.667 19.103 42.667 42.667v0z" />
<glyph unicode="&#xe910;" glyph-name="ui-backward" d="M845.653 654.934c-14.126 7.921-31.002 12.586-48.967 12.586-20.315 0-39.237-5.966-55.11-16.241l0.397 0.241-187.307-119.893v38.827c0.001 0.194 0.002 0.423 0.002 0.653 0 36.463-20.328 68.177-50.27 84.429l-0.506 0.251c-14.126 7.921-31.002 12.586-48.967 12.586-20.315 0-39.237-5.966-55.11-16.241l0.397 0.241-226.987-144.213c-27.351-17.232-45.257-47.272-45.257-81.493s17.906-64.261 44.861-81.26l0.397-0.233 225.707-143.36c15.422-10.162 34.336-16.211 54.663-16.211 18.007 0 34.905 4.747 49.512 13.057l-0.495-0.259c30.447 16.503 50.776 48.218 50.776 84.68 0 0.23-0.001 0.459-0.002 0.688v-0.035 38.827l188.587-119.893c15.438-10.068 34.31-16.098 54.583-16.213h0.030c0.014 0 0.030 0 0.046 0 18.008 0 34.908 4.748 49.515 13.059l-0.495-0.259c30.43 16.283 50.78 47.85 50.78 84.17 0 0.409-0.003 0.818-0.008 1.226l0.001-0.062v285.867c0 0.093 0.001 0.203 0.001 0.314 0 36.317-20.348 67.883-50.265 83.917l-0.509 0.249zM469.333 282.88c-0.288-4.269-2.779-7.897-6.335-9.782l-0.065-0.031c-2.466-1.361-5.406-2.162-8.533-2.162s-6.067 0.801-8.626 2.209l0.093-0.047-226.987 144.213c-3.36 1.84-5.6 5.352-5.6 9.387s2.24 7.546 5.545 9.359l0.055 0.028 225.707 143.787c2.433 1.511 5.363 2.449 8.503 2.559l0.030 0.001c3.131-0.193 6.037-0.959 8.68-2.195l-0.147 0.062c3.621-1.916 6.112-5.544 6.398-9.777l0.002-0.037zM810.667 282.88c-0.096-4.329-2.658-8.037-6.333-9.785l-0.067-0.029c-2.396-1.362-5.264-2.165-8.32-2.165s-5.924 0.803-8.405 2.21l0.085-0.044-225.707 143.787c-3.649 1.62-6.148 5.212-6.148 9.387s2.499 7.767 6.082 9.361l0.065 0.026 225.707 143.787c2.433 1.511 5.363 2.449 8.503 2.559l0.030 0.001c2.982-0.183 5.744-0.95 8.23-2.189l-0.124 0.056c3.742-1.776 6.304-5.484 6.4-9.801v-0.012z" />
<glyph unicode="&#xe911;" glyph-name="ui-bookmark" d="M554.667 554.667h-85.333v-85.333h-85.333v-85.333h85.333v-85.333h85.333v85.333h85.333v85.333h-85.333v85.333zM640 853.334h-256c-70.692 0-128-57.308-128-128v0-636.587c0.015-33.612 19.46-62.678 47.712-76.577l0.501-0.223c10.679-5.383 23.275-8.535 36.607-8.535 0.18 0 0.361 0.001 0.541 0.002h-0.028c20.262 0.016 38.869 7.092 53.496 18.9l-0.163-0.127 90.88 72.533c7.198 5.728 16.421 9.19 26.453 9.19s19.256-3.462 26.541-9.257l-0.087 0.067 90.88-72.533c14.47-11.662 33.078-18.72 53.333-18.72 47.11 0 85.303 38.175 85.333 85.277v636.59c0 70.692-57.308 128-128 128v0zM384 768h256c23.564 0 42.667-19.103 42.667-42.667v0h-341.333c0 23.564 19.103 42.667 42.667 42.667v0zM591.787 161.28c-21.668 17.39-49.499 27.91-79.787 27.91s-58.118-10.52-80.038-28.104l0.251 0.195-90.88-72.533v551.253h341.333v-551.253z" />
<glyph unicode="&#xe912;" glyph-name="ui-bulb" d="M512 853.334c-0.099 0-0.216 0-0.334 0-164.949 0-298.667-133.718-298.667-298.667 0-101.22 50.353-190.68 127.376-244.697l0.957-0.636v-79.36c-0.073-0.831-0.114-1.797-0.114-2.773s0.041-1.943 0.123-2.898l-0.009 0.125c-0.211-1.665-0.332-3.592-0.332-5.547s0.121-3.882 0.355-5.773l-0.023 0.226v-85.333c0-47.128 38.205-85.333 85.333-85.333v0h170.667c47.128 0 85.333 38.205 85.333 85.333v0 181.76c77.629 54.691 127.721 143.949 127.721 244.907 0 164.851-133.559 298.508-298.373 298.667h-0.015zM597.333 128h-170.667v85.333h170.667zM618.667 369.92c-12.771-7.472-21.236-21.083-21.333-36.679v-34.574h-170.667v34.133c0.031 0.584 0.049 1.268 0.049 1.956 0 15.323-8.78 28.596-21.584 35.061l-0.225 0.103c-64.217 37.572-106.667 106.205-106.667 184.752 0 117.821 95.513 213.333 213.333 213.333s213.333-95.513 213.333-213.333c0-78.547-42.45-147.18-105.66-184.207l-1.007-0.545z" />
<glyph unicode="&#xe913;" glyph-name="ui-business-diap" d="M469.333 234.667v-234.667h-42.667v235.093c0.239 11.597 9.697 20.907 21.329 20.907 0.002 0 0.003 0 0.005 0v0c11.687-0.234 21.099-9.647 21.333-21.311v-0.022zM853.333 725.334v-597.333c0-70.692-57.308-128-128-128v0h-170.667v236.373c0 58.91-47.756 106.667-106.667 106.667s-106.667-47.756-106.667-106.667v0-236.373h-85.333c-46.933 0-85.333 57.6-85.333 128v597.333c0 70.692 57.308 128 128 128v0h426.667c70.692 0 128-57.308 128-128v0zM469.333 512h-128v-85.333h128zM682.667 512h-128v-85.333h128zM682.667 682.667h-341.333v-85.333h341.333z" />
<glyph unicode="&#xe914;" glyph-name="ui-business" d="M725.333 853.334h-426.667c-70.692 0-128-57.308-128-128v0-597.333c0-70.692 57.308-128 128-128v0h426.667c70.692 0 128 57.308 128 128v0 597.333c0 70.692-57.308 128-128 128v0zM469.333 85.334h-42.667v149.333c0 11.782 9.551 21.333 21.333 21.333s21.333-9.551 21.333-21.333v0zM768 128c0-23.564-19.103-42.667-42.667-42.667v0h-170.667v149.333c0 58.91-47.756 106.667-106.667 106.667s-106.667-47.756-106.667-106.667v0-149.333h-42.667c-23.564 0-42.667 19.103-42.667 42.667v0 597.333c0 23.564 19.103 42.667 42.667 42.667v0h426.667c23.564 0 42.667-19.103 42.667-42.667v0zM341.333 682.667h341.333v-85.333h-341.333zM341.333 512h128v-85.333h-128zM554.667 512h128v-85.333h-128z" />
<glyph unicode="&#xe915;" glyph-name="ui-calendar" d="M725.333 768v85.333h-85.333v-85.333h-256v85.333h-85.333v-85.333c-70.692 0-128-57.308-128-128v0-426.667c0-70.692 57.308-128 128-128v0h426.667c70.692 0 128 57.308 128 128v0 426.667c0 70.692-57.308 128-128 128v0zM298.667 682.667h426.667c23.564 0 42.667-19.103 42.667-42.667v0-42.667h-512v42.667c0 23.564 19.103 42.667 42.667 42.667v0zM725.333 170.667h-426.667c-23.564 0-42.667 19.103-42.667 42.667v0 298.667h512v-298.667c0-23.564-19.103-42.667-42.667-42.667v0zM341.333 341.334h341.333v-85.333h-341.333z" />
<glyph unicode="&#xe916;" glyph-name="ui-call-ending" d="M784.64 261.974l-152.747 30.72c-5.044 1.059-10.841 1.666-16.779 1.666-27.991 0-52.834-13.477-68.394-34.295l-0.16-0.224-63.573-85.333c-92.218 55.593-167.394 130.632-221.532 219.854l-1.615 2.866 85.333 63.573c20.828 15.733 34.148 40.45 34.148 68.278 0 6.037-0.627 11.928-1.819 17.611l0.098-0.556-30.293 153.173c-8.043 39.416-42.415 68.659-83.623 68.693h-42.67c-0.393 0.004-0.858 0.007-1.323 0.007-70.692 0-128-57.308-128-128 0-6.475 0.481-12.838 1.409-19.055l-0.086 0.702c12.502-84.618 37.928-160.922 74.42-230.51l-1.887 3.95c1.273-4.222 3.017-7.903 5.22-11.255l-0.1 0.161c69.368-127.339 171.328-229.298 294.836-296.751l3.831-1.916c2.819-1.889 6.049-3.607 9.451-4.99l0.363-0.13c65.638-34.605 141.942-60.031 222.623-72.051l3.937-0.482c6.25-1.081 13.448-1.7 20.79-1.7 32.295 0 61.796 11.96 84.317 31.693l-0.147-0.126c26.242 23.54 42.675 57.557 42.675 95.413 0 0.506-0.003 1.012-0.009 1.517l0.001-0.077v42.667c0.005 0.36 0.009 0.784 0.009 1.21 0 41.243-29.259 75.652-68.152 83.603l-0.55 0.094zM177.067 633.6c-0.263 1.781-0.414 3.836-0.414 5.927 0 10.835 4.039 20.727 10.693 28.252l-0.039-0.045c7.872 9.165 19.474 14.933 32.424 14.933 0.001 0 0.002 0 0.003 0h42.666l32-152.747-72.96-54.613c-20.096 45.845-35.599 99.139-43.94 154.775l-0.433 3.518zM768 134.4c0-0.001 0-0.002 0-0.003 0-12.949-5.769-24.551-14.877-32.376l-0.057-0.048c-7.48-6.615-17.371-10.654-28.207-10.654-2.091 0-4.146 0.15-6.156 0.441l0.229-0.027c-59.027 8.166-112.39 23.105-162.498 44.241l4.205-1.574 54.613 72.533 152.747-30.293zM956.16 792.32l-60.16 60.587-128-128-128 128-60.16-60.587 128-128-128-128 60.16-60.16 128 128 128-128 60.16 60.16-128 128 128 128z" />
<glyph unicode="&#xe917;" glyph-name="ui-call-incoming" d="M784.64 261.974l-152.747 30.72c-5.044 1.059-10.841 1.666-16.779 1.666-27.991 0-52.834-13.477-68.394-34.295l-0.16-0.224-63.573-85.333c-92.218 55.593-167.394 130.632-221.532 219.854l-1.615 2.866 85.333 63.573c20.828 15.733 34.148 40.45 34.148 68.278 0 6.037-0.627 11.928-1.819 17.611l0.098-0.556-30.293 153.173c-8.043 39.416-42.415 68.659-83.623 68.693h-42.67c-0.393 0.004-0.858 0.007-1.323 0.007-70.692 0-128-57.308-128-128 0-6.475 0.481-12.838 1.409-19.055l-0.086 0.702c12.502-84.618 37.928-160.922 74.42-230.51l-1.887 3.95c1.273-4.222 3.017-7.903 5.22-11.255l-0.1 0.161c69.368-127.339 171.328-229.298 294.836-296.751l3.831-1.916c2.819-1.889 6.049-3.607 9.451-4.99l0.363-0.13c65.638-34.605 141.942-60.031 222.623-72.051l3.937-0.482c6.25-1.081 13.448-1.7 20.79-1.7 32.295 0 61.796 11.96 84.317 31.693l-0.147-0.126c26.242 23.54 42.675 57.557 42.675 95.413 0 0.506-0.003 1.012-0.009 1.517l0.001-0.077v42.667c0.005 0.36 0.009 0.784 0.009 1.21 0 41.243-29.259 75.652-68.152 83.603l-0.55 0.094zM177.067 633.6c-0.263 1.781-0.414 3.836-0.414 5.927 0 10.835 4.039 20.727 10.693 28.252l-0.039-0.045c7.872 9.165 19.474 14.933 32.424 14.933 0.001 0 0.002 0 0.003 0h42.666l32-152.747-72.96-54.613c-20.096 45.845-35.599 99.139-43.94 154.775l-0.433 3.518zM768 134.4c0-0.001 0-0.002 0-0.003 0-12.949-5.769-24.551-14.877-32.376l-0.057-0.048c-7.48-6.615-17.371-10.654-28.207-10.654-2.091 0-4.146 0.15-6.156 0.441l0.229-0.027c-59.027 8.166-112.39 23.105-162.498 44.241l4.205-1.574 54.613 72.533 152.747-30.293zM849.493 682.667h-238.080l170.667 170.667h-120.747l-183.040-183.040c-3.88-3.95-7.045-8.619-9.274-13.787l-0.113-0.293c-2.024-4.793-3.201-10.366-3.201-16.213s1.176-11.42 3.305-16.495l-0.105 0.281c2.342-5.461 5.506-10.13 9.393-14.087l183.033-183.033h120.747l-170.667 170.667h323.413v85.333z" />
<glyph unicode="&#xe918;" glyph-name="ui-call-outgoing" d="M935.253 656.214c-2.152 5.464-5.187 10.143-8.974 14.095l0.014-0.015-183.467 183.040h-120.32l170.667-170.667h-323.84v-85.333h323.84l-170.667-170.667h120.32l183.467 183.040c3.773 3.937 6.808 8.616 8.859 13.791l0.101 0.289c2.024 4.793 3.201 10.366 3.201 16.213s-1.176 11.42-3.305 16.495l0.105-0.281zM784.64 261.974l-152.747 30.72c-5.044 1.059-10.841 1.666-16.779 1.666-27.991 0-52.834-13.477-68.394-34.295l-0.16-0.224-63.573-85.333c-92.218 55.593-167.394 130.632-221.532 219.854l-1.615 2.866 85.333 63.573c20.828 15.733 34.148 40.45 34.148 68.278 0 6.037-0.627 11.928-1.819 17.611l0.098-0.556-30.293 153.173c-8.043 39.416-42.415 68.659-83.623 68.693h-42.67c-0.393 0.004-0.858 0.007-1.323 0.007-70.692 0-128-57.308-128-128 0-6.475 0.481-12.838 1.409-19.055l-0.086 0.702c12.502-84.618 37.928-160.922 74.42-230.51l-1.887 3.95c1.273-4.222 3.017-7.903 5.22-11.255l-0.1 0.161c69.368-127.339 171.328-229.298 294.836-296.751l3.831-1.916c2.819-1.889 6.049-3.607 9.451-4.99l0.363-0.13c65.638-34.605 141.942-60.031 222.623-72.051l3.937-0.482c6.25-1.081 13.448-1.7 20.79-1.7 32.295 0 61.796 11.96 84.317 31.693l-0.147-0.126c26.242 23.54 42.675 57.557 42.675 95.413 0 0.506-0.003 1.012-0.009 1.517l0.001-0.077v42.667c0.005 0.36 0.009 0.784 0.009 1.21 0 41.243-29.259 75.652-68.152 83.603l-0.55 0.094zM177.067 633.6c-0.263 1.781-0.414 3.836-0.414 5.927 0 10.835 4.039 20.727 10.693 28.252l-0.039-0.045c7.872 9.165 19.474 14.933 32.424 14.933 0.001 0 0.002 0 0.003 0h42.666l32-152.747-72.96-54.613c-20.096 45.845-35.599 99.139-43.94 154.775l-0.433 3.518zM768 134.4c0-0.001 0-0.002 0-0.003 0-12.949-5.769-24.551-14.877-32.376l-0.057-0.048c-7.48-6.615-17.371-10.654-28.207-10.654-2.091 0-4.146 0.15-6.156 0.441l0.229-0.027c-59.027 8.166-112.39 23.105-162.498 44.241l4.205-1.574 54.613 72.533 152.747-30.293z" />
<glyph unicode="&#xe919;" glyph-name="ui-camera" d="M512 554.667c-94.257 0-170.667-76.41-170.667-170.667s76.41-170.667 170.667-170.667c94.257 0 170.667 76.41 170.667 170.667v0c0 94.257-76.41 170.667-170.667 170.667v0zM512 298.667c-47.128 0-85.333 38.205-85.333 85.333s38.205 85.333 85.333 85.333c47.128 0 85.333-38.205 85.333-85.333v0c0-47.128-38.205-85.333-85.333-85.333v0zM798.293 542.294c7.647-7.709 12.373-18.325 12.373-30.046 0-23.564-19.103-42.667-42.667-42.667s-42.667 19.103-42.667 42.667c0 11.721 4.726 22.337 12.376 30.049l-0.003-0.003c7.947 7.312 18.597 11.795 30.293 11.795s22.346-4.483 30.325-11.823l-0.032 0.029zM810.667 682.667h-97.28l-13.653 42.667c-18.102 50.141-65.281 85.334-120.68 85.334-0.174 0-0.347 0-0.52-0.001h-133.093c-56.095-0.108-103.713-36.284-120.906-86.566l-0.268-0.901-13.653-40.533h-97.28c-70.692 0-128-57.308-128-128v0-341.333c0-70.692 57.308-128 128-128v0h597.333c70.692 0 128 57.308 128 128v0 341.333c0 70.692-57.308 128-128 128v0zM853.333 213.334c0-23.564-19.103-42.667-42.667-42.667v0h-597.333c-23.564 0-42.667 19.103-42.667 42.667v0 341.333c0 23.564 19.103 42.667 42.667 42.667v0h128c0.664-0.037 1.442-0.058 2.224-0.058 18.699 0 34.589 12.029 40.353 28.771l0.090 0.3 23.040 69.973c5.635 16.395 20.539 28.132 38.3 29.009l0.1 0.004h133.12c0.033 0 0.071 0 0.11 0 18.678 0 34.552-12.002 40.333-28.714l0.090-0.3 23.040-69.973c5.871-17.012 21.745-29.013 40.423-29.013 0.039 0 0.077 0 0.116 0h127.994c23.564 0 42.667-19.103 42.667-42.667v0z" />
<glyph unicode="&#xe91a;" glyph-name="ui-car" d="M293.547 378.88c9.609-9.609 15.552-22.884 15.552-37.547 0-29.326-23.773-53.099-53.099-53.099-14.663 0-27.938 5.943-37.547 15.552v0c-9.761 9.539-15.814 22.836-15.814 37.547s6.053 28.008 15.804 37.537l0.010 0.010c9.723 9.355 22.962 15.117 37.547 15.117s27.823-5.762 37.564-15.134l-0.017 0.017zM757.76 393.387c-3.8-0.436-7.263-1.492-10.42-3.068l0.18 0.082-8.96-4.693c-3.068-2.007-5.727-4.26-8.081-6.799l-0.025-0.028c-9.761-9.539-15.814-22.836-15.814-37.547s6.053-28.008 15.804-37.537l0.010-0.010c2.379-2.567 5.039-4.82 7.945-6.727l0.162-0.1 8.96-4.693c2.931-1.398 6.352-2.574 9.921-3.355l0.319-0.059h10.24c0.212-0.003 0.462-0.005 0.712-0.005 29.22 0 52.907 23.687 52.907 52.907 0 14.894-6.155 28.351-16.059 37.966l-0.013 0.013c-9.616 9.132-22.647 14.749-36.99 14.749-3.822 0-7.551-0.399-11.147-1.157l0.351 0.062zM384 298.667h256v85.333h-256zM938.667 380.587v-124.587c-0.16-55.254-35.305-102.258-84.442-120.038l-0.891-0.282v-93.013h-128v85.333h-426.667v-85.333h-128v93.44c-49.895 18.013-84.984 64.811-85.333 119.851v124.629c0.725 62.719 34.426 117.408 84.548 147.614l0.785 0.439h-42.667c-23.564 0-42.667 19.103-42.667 42.667s19.103 42.667 42.667 42.667v0h62.72l12.8 85.333c8.469 62.817 61.48 110.816 125.811 111.36h365.283c63.88-0.418 116.624-47.566 125.781-108.952l0.086-0.702 12.8-85.333h62.72c23.564 0 42.667-19.103 42.667-42.667s-19.103-42.667-42.667-42.667v0h-40.533c50.247-31.224 83.203-86.121 83.203-148.715 0-0.367-0.001-0.734-0.003-1.101v0.056zM288 689.067l-19.2-134.4h486.4l-19.2 134.4c-3.219 20.652-20.878 36.269-42.184 36.269-0.17 0-0.339-0.001-0.508-0.003h-363.921c-20.972-0.405-38.212-15.881-41.356-36.026l-0.031-0.24zM853.333 380.587c0 49.013-39.733 88.747-88.747 88.747v0h-505.173c-49.013 0-88.747-39.733-88.747-88.747v-124.587c0-23.564 19.103-42.667 42.667-42.667v0h597.333c23.564 0 42.667 19.103 42.667 42.667v0z" />
<glyph unicode="&#xe91b;" glyph-name="ui-caret-down" d="M755.627 524.374l-213.333-213.333c-7.733-7.795-18.45-12.621-30.293-12.621s-22.56 4.826-30.291 12.618l-213.336 213.336c-7.601 7.7-12.296 18.286-12.296 29.968 0 5.971 1.227 11.656 3.442 16.817l-0.106-0.278c6.527 15.59 21.621 26.363 39.242 26.453h426.679c17.632-0.091 32.726-10.863 39.149-26.172l0.105-0.281c2.109-4.883 3.336-10.568 3.336-16.539 0-11.682-4.695-22.267-12.3-29.972l0.004 0.005z" />
<glyph unicode="&#xe91c;" glyph-name="ui-caret-up" d="M764.587 325.12c-6.527-15.59-21.621-26.363-39.242-26.453h-426.679c-17.632 0.091-32.726 10.863-39.149 26.172l-0.105 0.281c-2.109 4.883-3.336 10.568-3.336 16.539 0 11.682 4.695 22.267 12.3 29.972l-0.004-0.005 213.333 213.333c7.733 7.795 18.45 12.621 30.293 12.621s22.56-4.826 30.291-12.618l213.336-213.336c7.601-7.7 12.296-18.286 12.296-29.968 0-5.971-1.227-11.656-3.442-16.817l0.106 0.278z" />
<glyph unicode="&#xe91d;" glyph-name="ui-chat-diap" d="M929.28 93.014c0.895-4.249 1.407-9.13 1.407-14.132 0-19.6-7.867-37.363-20.616-50.304l0.009 0.009c-12.688-12.82-30.288-20.758-49.741-20.758-5.202 0-10.272 0.568-15.15 1.644l0.464-0.086-85.333 16.64c-35.364-16.221-76.695-25.781-120.232-26.026h-0.088c-19.918 0.013-39.393 1.875-58.272 5.425l1.952-0.305c-79.061 15.257-145.641 59.927-189.233 121.93l-0.634 0.95c10.667 0 21.76 0 32.853 0 0.162 0 0.354 0 0.547 0 25.313 0 50.045 2.485 73.966 7.224l-2.406-0.397h4.267c36.557-31.304 84.412-50.356 136.717-50.356 35.31 0 68.591 8.683 97.826 24.029l-1.157-0.553c5.803 2.904 12.644 4.604 19.881 4.604 2.927 0 5.79-0.278 8.562-0.809l-0.283 0.045 76.8-15.787-15.36 77.653c-0.523 2.507-0.823 5.388-0.823 8.339 0 7.079 1.724 13.755 4.775 19.632l-0.112-0.237c14.81 28.092 23.503 61.392 23.503 96.723 0 14.235-1.411 28.14-4.101 41.583l0.225-1.346c-7.612 37.448-24.094 70.205-47.175 97.142l0.241-0.288c0 5.12 2.56 9.387 3.413 14.507 3.562 20.385 5.598 43.858 5.598 67.807 0 9.62-0.329 19.162-0.975 28.618l0.070-1.278c78.496-54.596 129.232-144.35 129.232-245.955 0-44.122-9.568-86.010-26.742-123.702l0.763 1.87zM426.667 170.667c-0.2 0-0.438-0.001-0.675-0.001-50.831 0-99.017 11.323-142.174 31.585l2.049-0.865-100.693-20.053c-4.569-0.983-9.818-1.545-15.198-1.545-41.709 0-75.52 33.811-75.52 75.52 0 5.38 0.563 10.63 1.632 15.692l-0.087-0.493 20.053 100.693c-20.073 42.173-31.795 91.646-31.795 143.857 0 188.513 152.82 341.333 341.333 341.333 94.86 0 180.681-38.695 242.542-101.163l0.027-0.027c61.905-61.792 100.201-147.217 100.201-241.586 0-165.854-118.29-304.080-275.106-334.913l-2.162-0.354c-19.029-4.186-41.181-6.946-63.848-7.665l-0.578-0.015zM298.667 554.667h256v85.333h-256zM298.667 384h170.667v85.333h-170.667z" />
<glyph unicode="&#xe91e;" glyph-name="ui-chat" d="M929.28 93.014c1.229-4.938 1.935-10.607 1.935-16.441 0-39.116-31.71-70.827-70.827-70.827-5.834 0-11.503 0.705-16.927 2.035l0.485-0.101-85.333 16.64c-34.799-15.372-75.38-24.321-118.051-24.321-0.198 0-0.396 0-0.594 0.001h0.031c-19.918 0.013-39.393 1.875-58.272 5.425l1.952-0.305c-79.061 15.257-145.641 59.927-189.233 121.93l-0.634 0.95c10.667 0 21.76 0 32.853 0 0.162 0 0.354 0 0.547 0 25.313 0 50.045 2.485 73.966 7.224l-2.406-0.397h4.267c26.399-23.047 59.069-39.572 95.114-46.716l1.313-0.217c12.098-2.465 26.003-3.876 40.237-3.876 35.33 0 68.63 8.693 97.878 24.056l-1.156-0.553c5.751 2.88 12.53 4.566 19.703 4.566 2.839 0 5.616-0.264 8.308-0.769l-0.278 0.043 77.653-15.787-15.787 77.653c-0.523 2.507-0.823 5.388-0.823 8.339 0 7.079 1.724 13.755 4.775 19.632l-0.112-0.237c14.81 28.092 23.503 61.392 23.503 96.723 0 14.235-1.411 28.14-4.101 41.583l0.225-1.346c-7.612 37.448-24.094 70.205-47.175 97.142l0.241-0.288c0 5.12 2.56 9.387 3.413 14.507 3.575 20.421 5.619 43.937 5.619 67.929 0 9.727-0.336 19.375-0.997 28.934l0.071-1.29c78.496-54.596 129.232-144.35 129.232-245.955 0-44.122-9.568-86.010-26.742-123.702l0.763 1.87zM554.667 640h-256v-85.333h256zM426.667 170.667c-0.2 0-0.438-0.001-0.675-0.001-50.831 0-99.017 11.323-142.174 31.585l2.049-0.865-100.693-20.053c-4.569-0.983-9.818-1.545-15.198-1.545-41.709 0-75.52 33.811-75.52 75.52 0 5.38 0.563 10.63 1.632 15.692l-0.087-0.493 20.053 100.693c-20.073 42.173-31.795 91.646-31.795 143.857 0 188.513 152.82 341.333 341.333 341.333 94.86 0 180.681-38.695 242.542-101.163l0.027-0.027c61.905-61.792 100.201-147.217 100.201-241.586 0-165.854-118.29-304.080-275.106-334.913l-2.162-0.354c-19.029-4.186-41.181-6.946-63.848-7.665l-0.578-0.015zM310.613 284.16c33.815-17.606 73.842-27.933 116.281-27.933 141.385 0 256 114.615 256 256s-114.615 256-256 256c-141.385 0-256-114.615-256-256 0-42.439 10.327-82.466 28.604-117.705l-0.672 1.424c2.939-5.64 4.663-12.316 4.663-19.395 0-2.951-0.3-5.832-0.87-8.614l0.047 0.275-20.48-100.693 100.693 20.48h8.533c0.434 0.016 0.944 0.025 1.456 0.025 6.434 0 12.536-1.424 18.007-3.975l-0.263 0.11zM469.333 469.334h-170.667v-85.333h170.667z" />
<glyph unicode="&#xe91f;" glyph-name="ui-check" d="M747.947 682.667l-278.613-433.067-112.64 177.067h-100.693l177.92-279.040c7.618-11.744 20.597-19.448 35.387-19.626h0.027c14.98 0.026 28.146 7.767 35.739 19.461l0.101 0.166 343.893 535.040z" />
<glyph unicode="&#xe920;" glyph-name="ui-chevron-down" d="M725.333 409.174l-183.040-183.467c-7.733-7.795-18.45-12.621-30.293-12.621s-22.56 4.826-30.291 12.618l-0.003 0.003-183.040 183.467v120.32l213.333-213.333 213.333 213.333z" />
<glyph unicode="&#xe921;" glyph-name="ui-chevron-left" d="M494.507 213.334l-183.467 183.040c-7.795 7.733-12.621 18.45-12.621 30.293s4.826 22.56 12.618 30.291l0.003 0.003 183.467 183.040h120.32l-213.333-213.333 213.333-213.333z" />
<glyph unicode="&#xe922;" glyph-name="ui-chevron-right" d="M712.96 396.374l-183.467-183.040h-120.32l213.333 213.333-213.333 213.333h120.32l183.467-183.040c7.795-7.733 12.621-18.45 12.621-30.293s-4.826-22.56-12.618-30.291l-0.003-0.003z" />
<glyph unicode="&#xe923;" glyph-name="ui-chevron-up" d="M725.333 323.84l-213.333 213.333-213.333-213.333v120.32l183.040 183.467c7.733 7.795 18.45 12.621 30.293 12.621s22.56-4.826 30.291-12.618l0.003-0.003 183.040-183.467z" />
<glyph unicode="&#xe924;" glyph-name="ui-chromecast" d="M810.667 768h-597.333c-70.692 0-128-57.308-128-128v0-42.667h85.333v42.667c0 23.564 19.103 42.667 42.667 42.667v0h597.333c23.564 0 42.667-19.103 42.667-42.667v0-426.667c0-23.564-19.103-42.667-42.667-42.667v0h-213.333v-85.333h213.333c70.692 0 128 57.308 128 128v0 426.667c0 70.692-57.308 128-128 128v0zM85.333 341.334v-85.333c94.257 0 170.667-76.41 170.667-170.667v0h85.333c0 141.385-114.615 256-256 256v0zM85.333 170.667v-85.333h85.333c0 47.128-38.205 85.333-85.333 85.333v0zM85.333 512v-85.333c188.513 0 341.333-152.82 341.333-341.333v0h85.333c0 235.641-191.025 426.667-426.667 426.667v0z" />
<glyph unicode="&#xe925;" glyph-name="ui-circle-diap" d="M938.667 426.667c0-235.641-191.025-426.667-426.667-426.667s-426.667 191.025-426.667 426.667c0 235.641 191.025 426.667 426.667 426.667v0c235.641 0 426.667-191.025 426.667-426.667v0z" />
<glyph unicode="&#xe926;" glyph-name="ui-circle" d="M512-0c-235.641 0-426.667 191.025-426.667 426.667s191.025 426.667 426.667 426.667c235.641 0 426.667-191.025 426.667-426.667v0c0-235.641-191.025-426.667-426.667-426.667v0zM512 768c-188.513 0-341.333-152.82-341.333-341.333s152.82-341.333 341.333-341.333c188.513 0 341.333 152.82 341.333 341.333v0c0 188.513-152.82 341.333-341.333 341.333v0z" />
<glyph unicode="&#xe927;" glyph-name="ui-clock" d="M554.667 469.334h128v-85.333h-170.667c-23.564 0-42.667 19.103-42.667 42.667v0 256h85.333zM938.667 426.667c0-235.641-191.025-426.667-426.667-426.667s-426.667 191.025-426.667 426.667c0 235.641 191.025 426.667 426.667 426.667v0c235.641 0 426.667-191.025 426.667-426.667v0zM853.333 426.667c0 188.513-152.82 341.333-341.333 341.333s-341.333-152.82-341.333-341.333c0-188.513 152.82-341.333 341.333-341.333v0c188.513 0 341.333 152.82 341.333 341.333v0z" />
<glyph unicode="&#xe928;" glyph-name="ui-close" d="M572.16 426.667l211.2-213.333-58.027-58.027-213.333 211.2-211.2-211.2-60.16 58.027 213.333 211.2-213.333 213.333 60.16 60.16 213.333-213.333 211.2 213.333 60.16-60.16z" />
<glyph unicode="&#xe929;" glyph-name="ui-cloud" d="M768 469.334c-0.080 141.325-114.664 255.86-256 255.86-111.856 0-206.957-71.739-241.802-171.717l-0.545-1.796c-101.782-17.423-178.272-104.995-178.272-210.432 0-115.694 92.095-209.878 206.975-213.24l0.31-0.007h469.333c94.257 0 170.667 76.41 170.667 170.667s-76.41 170.667-170.667 170.667v0zM768 213.334h-469.333c-70.264 0.563-127.007 57.653-127.007 127.996 0 55.027 34.724 101.945 83.455 120.036l0.886 0.288c12.677 4.75 27.325 7.555 42.612 7.68h0.055c32.882-0.498 62.743-13.036 85.457-33.389l-0.124 0.109v100.693c-6.319 2.63-14.409 5.397-22.687 7.716l-1.633 0.391c27.979 58.3 86.546 97.837 154.347 97.837 94.257 0 170.667-76.41 170.667-170.667 0-52.338-23.56-99.174-60.652-130.481l-0.254-0.209h109.653c6.505 11.392 12.69 24.763 17.755 38.673l0.592 1.86c4.708 1.049 10.265 1.81 15.943 2.121l0.27 0.012c47.128 0 85.333-38.205 85.333-85.333s-38.205-85.333-85.333-85.333v0z" />
<glyph unicode="&#xe92a;" glyph-name="ui-cross" d="M810.667 512h-256v-512h-85.333v512h-256v85.333h256v256h85.333v-256h256z" />
<glyph unicode="&#xe92b;" glyph-name="ui-csv-file" d="M725.333 85.334h-426.667c-23.564 0-42.667 19.103-42.667 42.667v0 597.333c0 23.564 19.103 42.667 42.667 42.667v0h256v-170.667c0-23.564 19.103-42.667 42.667-42.667v0h170.667v-128h85.333v177.92c-0.032 35.333-14.375 67.31-37.545 90.452l-120.748 120.748c-23.143 23.171-55.12 37.515-90.447 37.547h-305.926c-70.692 0-128-57.308-128-128v0-597.333c0-70.692 57.308-128 128-128v0h426.667c70.692 0 128 57.308 128 128v0h-85.333c0-23.564-19.103-42.667-42.667-42.667v0zM750.507 640h-110.507v110.507zM384 277.76c-0.118-1.324-0.185-2.864-0.185-4.42 0-29.22 23.687-52.907 52.907-52.907 1.416 0 2.82 0.056 4.208 0.165l-0.183-0.012c0.222-0.002 0.485-0.004 0.748-0.004 18.163 0 34.862 6.27 48.050 16.765l-0.157-0.121v-53.333c-13.956-8.881-30.962-14.154-49.2-14.154-1.304 0-2.601 0.027-3.891 0.080l0.185-0.006c-1.713-0.103-3.715-0.161-5.731-0.161-56.318 0-101.973 45.655-101.973 101.973 0 2.158 0.067 4.301 0.199 6.426l-0.014-0.291c-0.062 1.327-0.097 2.883-0.097 4.448 0 56.318 45.655 101.973 101.973 101.973 2.136 0 4.256-0.066 6.359-0.195l-0.288 0.014c0.915 0.032 1.99 0.051 3.069 0.051 18.503 0 35.738-5.428 50.2-14.777l-0.363 0.22v-53.333c-12.912 10.627-29.615 17.071-47.823 17.071-0.287 0-0.574-0.002-0.861-0.005h0.044c-1.299 0.113-2.811 0.178-4.338 0.178-29.22 0-52.907-23.687-52.907-52.907 0-0.963 0.026-1.92 0.077-2.871l-0.006 0.133zM632.32 232.107c0 10.24-6.4 13.653-17.92 17.92l-31.573 8.96c-34.987 10.24-54.613 27.733-54.613 62.72 0 42.667 34.987 64.427 79.36 64.427 0.887 0.021 1.932 0.034 2.979 0.034 22.978 0 44.588-5.859 63.416-16.166l-0.689 0.346v-50.347c-17.48 12.924-39.343 20.856-63.034 21.332l-0.113 0.002c-15.787 0-27.733-4.267-27.733-14.933s6.827-13.227 17.493-16.64l32-9.387c37.973-11.947 55.467-32.427 55.467-64.427 0-45.227-38.4-65.28-85.333-65.28-0.569-0.008-1.24-0.013-1.913-0.013-24.491 0-47.503 6.329-67.49 17.442l0.71-0.362v49.493c18.954-12.919 42.171-20.931 67.206-21.755l0.207-0.005c17.067-2.133 32 3.84 32 16.64zM814.933 247.040l47.787 136.96h56.32l-78.080-209.493h-53.76l-78.080 209.493h58.88z" />
<glyph unicode="&#xe92c;" glyph-name="ui-delete-all" d="M725.333 128c0-23.564-19.103-42.667-42.667-42.667v0h-341.333c-23.564 0-42.667 19.103-42.667 42.667v0 512h298.667v85.333h-170.667c0 23.564 19.103 42.667 42.667 42.667v0h128v85.333h-128c-70.692 0-128-57.308-128-128v0h-213.333v-85.333h85.333v-512c0-70.692 57.308-128 128-128v0h341.333c70.692 0 128 57.308 128 128v0 384h-85.333zM384 512h85.333v-298.667h-85.333v298.667zM554.667 512v-298.667h85.333v298.667h-85.333zM853.333 767.574v85.333h-85.333v-85.333h-85.333v-85.333h85.333v-85.333h85.333v85.333h85.333v85.333h-85.333z" />
<glyph unicode="&#xe92d;" glyph-name="ui-delete" d="M896 725.334h-213.333c0 70.692-57.308 128-128 128v0h-85.333c-70.692 0-128-57.308-128-128v0h-213.333v-85.333h85.333v-512c0-70.692 57.308-128 128-128v0h341.333c70.692 0 128 57.308 128 128v0 512h85.333zM469.333 768h85.333c23.564 0 42.667-19.103 42.667-42.667v0h-170.667c0 23.564 19.103 42.667 42.667 42.667v0zM725.333 128c0-23.564-19.103-42.667-42.667-42.667v0h-341.333c-23.564 0-42.667 19.103-42.667 42.667v0 512h426.667zM384 512h85.333v-298.667h-85.333zM554.667 512h85.333v-298.667h-85.333z" />
<glyph unicode="&#xe92e;" glyph-name="ui-dialpad" d="M384 640c0-47.128-38.205-85.333-85.333-85.333s-85.333 38.205-85.333 85.333c0 47.128 38.205 85.333 85.333 85.333v0c47.128 0 85.333-38.205 85.333-85.333v0zM512 725.334c-47.128 0-85.333-38.205-85.333-85.333s38.205-85.333 85.333-85.333c47.128 0 85.333 38.205 85.333 85.333v0c0 47.128-38.205 85.333-85.333 85.333v0zM701.44 558.080c7.146-2.111 15.363-3.354 23.86-3.413h0.033c38.614 0 71.237 25.647 81.765 60.836l0.155 0.604c2.166 7.155 3.413 15.379 3.413 23.893 0 47.128-38.205 85.333-85.333 85.333s-85.333-38.205-85.333-85.333c0-38.614 25.647-71.237 60.836-81.765l0.604-0.155zM298.667 512c-47.128 0-85.333-38.205-85.333-85.333s38.205-85.333 85.333-85.333c47.128 0 85.333 38.205 85.333 85.333v0c0 47.128-38.205 85.333-85.333 85.333v0zM512 512c-47.128 0-85.333-38.205-85.333-85.333s38.205-85.333 85.333-85.333c47.128 0 85.333 38.205 85.333 85.333v0c0 47.128-38.205 85.333-85.333 85.333v0zM725.333 341.334c47.128 0 85.333 38.205 85.333 85.333s-38.205 85.333-85.333 85.333c-47.128 0-85.333-38.205-85.333-85.333v0c0-47.128 38.205-85.333 85.333-85.333v0zM298.667 298.667c-47.128 0-85.333-38.205-85.333-85.333s38.205-85.333 85.333-85.333c47.128 0 85.333 38.205 85.333 85.333v0c0 47.128-38.205 85.333-85.333 85.333v0zM512 298.667c-47.128 0-85.333-38.205-85.333-85.333s38.205-85.333 85.333-85.333c47.128 0 85.333 38.205 85.333 85.333v0c0 47.128-38.205 85.333-85.333 85.333v0zM725.333 298.667c-47.128 0-85.333-38.205-85.333-85.333s38.205-85.333 85.333-85.333c47.128 0 85.333 38.205 85.333 85.333v0c0 47.128-38.205 85.333-85.333 85.333v0z" />
<glyph unicode="&#xe92f;" glyph-name="ui-diamond-diap" d="M941.653 426.667c-0.032-35.333-14.375-67.31-37.545-90.452l-301.654-301.654c-23.158-23.13-55.135-37.434-90.453-37.434s-67.296 14.304-90.455 37.435l-301.652 301.652c-23.13 23.158-37.434 55.135-37.434 90.453s14.304 67.296 37.435 90.455l301.652 301.652c23.158 23.13 55.135 37.434 90.453 37.434s67.296-14.304 90.455-37.435l301.652-301.652c23.171-23.143 37.515-55.12 37.547-90.447v-0.006z" />
<glyph unicode="&#xe930;" glyph-name="ui-diamond" d="M512-2.986c-35.333 0.032-67.31 14.375-90.452 37.545l-301.654 301.654c-23.13 23.158-37.434 55.135-37.434 90.453s14.304 67.296 37.435 90.455l301.652 301.652c23.158 23.13 55.135 37.434 90.453 37.434s67.296-14.304 90.455-37.435l301.652-301.652c23.13-23.158 37.434-55.135 37.434-90.453s-14.304-67.296-37.435-90.455l-301.652-301.652c-23.143-23.171-55.12-37.515-90.447-37.547h-0.006zM512 770.987c-0.073 0-0.16 0.001-0.247 0.001-11.721 0-22.338-4.726-30.049-12.377l-301.65-301.65c-7.795-7.733-12.621-18.45-12.621-30.293s4.826-22.56 12.618-30.291l301.656-301.656c7.733-7.795 18.45-12.621 30.293-12.621s22.56 4.826 30.291 12.618l301.656 301.656c7.795 7.733 12.621 18.45 12.621 30.293s-4.826 22.56-12.618 30.291l-301.656 301.656c-7.709 7.648-18.326 12.374-30.047 12.374-0.087 0-0.173 0-0.26-0.001h0.013z" />
<glyph unicode="&#xe931;" glyph-name="ui-doc-file" d="M725.333 85.334h-426.667c-23.564 0-42.667 19.103-42.667 42.667v0 597.333c0 23.564 19.103 42.667 42.667 42.667v0h256v-170.667c0-23.564 19.103-42.667 42.667-42.667v0h170.667v-128h85.333v177.92c-0.032 35.333-14.375 67.31-37.545 90.452l-120.748 120.748c-23.143 23.171-55.12 37.515-90.447 37.547h-305.926c-70.692 0-128-57.308-128-128v0-597.333c0-70.692 57.308-128 128-128v0h426.667c70.692 0 128 57.308 128 128v0h-85.333c0-23.564-19.103-42.667-42.667-42.667v0zM750.507 640h-110.507v110.507zM337.493 384v-209.493h79.36c2.518-0.232 5.446-0.364 8.405-0.364 53.726 0 97.28 43.554 97.28 97.28 0 2.681-0.108 5.337-0.321 7.963l0.023-0.346c0.188 2.269 0.294 4.912 0.294 7.579 0 53.962-43.745 97.707-97.707 97.707-2.807 0-5.586-0.118-8.333-0.35l0.359 0.024zM469.333 277.76c0.239-1.857 0.375-4.005 0.375-6.184 0-28.277-22.923-51.2-51.2-51.2-1.634 0-3.25 0.077-4.845 0.226l0.204-0.015h-22.613v114.773h22.613c1.407 0.137 3.043 0.216 4.696 0.216 28.277 0 51.2-22.923 51.2-51.2 0-2.333-0.156-4.629-0.458-6.879l0.029 0.263zM547.84 277.76c0-56.554 45.846-102.4 102.4-102.4s102.4 45.846 102.4 102.4v0c0 56.554-45.846 102.4-102.4 102.4s-102.4-45.846-102.4-102.4v0zM697.6 277.76c0-36.267-19.2-60.16-47.36-60.16s-46.933 23.893-46.933 60.16 18.347 60.16 46.933 60.16 46.080-23.893 46.080-60.16zM832 277.76c-0.12-1.334-0.188-2.886-0.188-4.455 0-29.22 23.687-52.907 52.907-52.907 1.568 0 3.12 0.068 4.654 0.202l-0.199-0.014c0.386-0.007 0.841-0.011 1.296-0.011 18.263 0 35.062 6.271 48.361 16.776l-0.164-0.125v-53.333c-13.828-8.471-30.567-13.487-48.478-13.487-2.46 0-4.897 0.095-7.309 0.28l0.32-0.020c-1.713-0.103-3.715-0.161-5.731-0.161-56.318 0-101.973 45.655-101.973 101.973 0 2.158 0.067 4.301 0.199 6.426l-0.014-0.291c-0.030 0.929-0.047 2.021-0.047 3.117 0 56.554 45.846 102.4 102.4 102.4 1.818 0 3.624-0.047 5.419-0.141l-0.251 0.010c0.931 0.033 2.024 0.052 3.122 0.052 18.627 0 35.988-5.426 50.586-14.783l-0.375 0.225v-53.333c-12.964 10.628-29.716 17.070-47.973 17.070-0.235 0-0.469-0.001-0.703-0.003h0.036c-1.299 0.113-2.811 0.178-4.338 0.178-29.22 0-52.907-23.687-52.907-52.907 0-0.963 0.026-1.92 0.077-2.871l-0.006 0.133z" />
<glyph unicode="&#xe932;" glyph-name="ui-document" d="M815.787 695.040l-120.747 120.747c-23.143 23.171-55.12 37.515-90.447 37.547h-305.926c-70.692 0-128-57.308-128-128v0-597.333c0-70.692 57.308-128 128-128v0h426.667c70.692 0 128 57.308 128 128v0 476.587c-0.032 35.333-14.375 67.31-37.545 90.452l-0.001 0.001zM640 750.507l110.507-110.507h-110.507zM725.333 85.334h-426.667c-23.564 0-42.667 19.103-42.667 42.667v0 597.333c0 23.564 19.103 42.667 42.667 42.667v0h256v-170.667c0-23.564 19.103-42.667 42.667-42.667v0h170.667v-426.667c0-23.564-19.103-42.667-42.667-42.667v0zM341.333 426.667h341.333v-85.333h-341.333zM341.333 298.667h341.333v-85.333h-341.333z" />
<glyph unicode="&#xe933;" glyph-name="ui-download" d="M341.333 529.494l128-128v366.507h85.333v-366.507l128 128v-120.32l-140.373-140.8c-3.937-3.773-8.616-6.808-13.791-8.859l-0.289-0.101c-4.771-2.163-10.345-3.423-16.213-3.423s-11.443 1.26-16.466 3.525l0.253-0.102c-5.464 2.152-10.143 5.187-14.095 8.974l0.015-0.014-140.373 140.8zM256 85.334h512v85.333h-512z" />
<glyph unicode="&#xe934;" glyph-name="ui-dropdown" d="M259.413 495.787c-2.109 4.883-3.336 10.568-3.336 16.539 0 11.682 4.695 22.267 12.3 29.972l-0.004-0.005 213.333 213.333c7.733 7.795 18.45 12.621 30.293 12.621s22.56-4.826 30.291-12.618l213.336-213.336c7.601-7.7 12.296-18.286 12.296-29.968 0-5.971-1.227-11.656-3.442-16.817l0.106 0.278c-6.527-15.59-21.621-26.363-39.242-26.453h-426.679c-17.632 0.091-32.726 10.863-39.149 26.172l-0.105 0.281zM725.333 384h-426.667c-17.632-0.091-32.726-10.863-39.149-26.172l-0.105-0.281c-2.109-4.883-3.336-10.568-3.336-16.539 0-11.682 4.695-22.267 12.3-29.972l-0.004 0.005 213.333-213.333c7.733-7.795 18.45-12.621 30.293-12.621s22.56 4.826 30.291 12.618l213.336 213.336c7.601 7.7 12.296 18.286 12.296 29.968 0 5.971-1.227 11.656-3.442 16.817l0.106-0.278c-6.527 15.59-21.621 26.363-39.242 26.453h-0.012z" />
<glyph unicode="&#xe935;" glyph-name="ui-edit" d="M865.707 730.454l-49.92 49.92c-23.158 23.13-55.135 37.434-90.453 37.434s-67.296-14.304-90.455-37.435l-476.159-475.732c-17.2-17.534-29.548-39.886-34.834-64.845l-0.153-0.862-12.373-62.293c-1.59-7.568-2.5-16.264-2.5-25.173 0-70.671 57.273-127.966 127.937-128h0.003c8.922 0.022 17.615 0.953 26.005 2.705l-0.832-0.145 62.293 12.373c25.821 5.439 48.172 17.787 65.728 35.007l-0.021-0.020 475.733 476.16c23.13 23.158 37.434 55.135 37.434 90.453s-14.304 67.296-37.435 90.455l0.001-0.001zM329.387 133.12c-5.744-5.878-13.16-10.1-21.479-11.896l-0.281-0.051-62.293-12.373c-2.569-0.55-5.52-0.864-8.544-0.864-23.564 0-42.667 19.103-42.667 42.667 0 3.025 0.315 5.976 0.913 8.822l-0.049-0.278 12.373 62.293c1.847 8.6 6.068 16.016 11.939 21.752l0.008 0.008 378.027 379.307 110.507-110.507zM657.493 682.667l37.547 37.547c7.733 7.795 18.45 12.621 30.293 12.621s22.56-4.826 30.291-12.618l49.923-49.923c7.795-7.733 12.621-18.45 12.621-30.293s-4.826-22.56-12.618-30.291l-37.55-37.55zM512 85.334h298.667v-85.333h-298.667z" />
<glyph unicode="&#xe936;" glyph-name="ui-emoticon-happy" d="M512 853.334c-235.641 0-426.667-191.025-426.667-426.667s191.025-426.667 426.667-426.667c235.641 0 426.667 191.025 426.667 426.667v0c0 235.641-191.025 426.667-426.667 426.667v0zM512 85.334c-188.513 0-341.333 152.82-341.333 341.333s152.82 341.333 341.333 341.333c188.513 0 341.333-152.82 341.333-341.333v0c0-188.513-152.82-341.333-341.333-341.333v0zM331.52 544.427c-0.101 1.531-0.159 3.319-0.159 5.12s0.058 3.589 0.171 5.362l-0.012-0.242c0 0.061 0 0.134 0 0.206 0 14.641 6.045 27.871 15.775 37.329l0.012 0.012c2.13 1.872 4.505 3.567 7.042 5.010l9.171 4.804c2.945 1.281 6.382 2.318 9.961 2.946l0.279 0.041c3.075 0.792 6.604 1.247 10.24 1.247s7.165-0.455 10.535-1.311l-0.295 0.064c3.858-0.669 7.295-1.706 10.542-3.102l-0.302 0.116 8.96-4.693c3.068-2.007 5.727-4.26 8.081-6.799l0.025-0.028c9.742-9.47 15.787-22.699 15.787-37.34 0-0.073 0-0.145 0-0.217v0.011c0.101-1.531 0.159-3.319 0.159-5.12s-0.058-3.589-0.171-5.362l0.012 0.242c-0.839-3.888-2.015-7.309-3.538-10.534l0.125 0.294c-1.465-3.465-3.036-6.409-4.834-9.193l0.141 0.233c-4.148-5.84-9.094-10.785-14.743-14.805l-0.19-0.129-8.96-4.693c-2.931-1.398-6.352-2.574-9.921-3.355l-0.319-0.059h-20.48c-3.888 0.839-7.309 2.015-10.534 3.538l0.294-0.125-9.813 8.107c-5.093 3.769-9.458 8.133-13.108 13.060l-0.118 0.167c-1.657 2.551-3.228 5.495-4.546 8.574l-0.147 0.386c-1.971 2.947-3.698 6.327-5.012 9.905l-0.108 0.335zM602.453 517.12c-9.761 9.539-15.814 22.836-15.814 37.547s6.053 28.008 15.804 37.537l0.010 0.010c2.358 1.905 5.018 3.61 7.856 5.009l0.25 0.111 8.96 4.693c2.945 1.281 6.382 2.318 9.961 2.946l0.279 0.041c3.075 0.792 6.604 1.247 10.24 1.247s7.165-0.455 10.535-1.311l-0.295 0.064c3.858-0.669 7.295-1.706 10.542-3.102l-0.302 0.116 8.96-4.693c5.84-4.148 10.785-9.094 14.805-14.743l0.129-0.19c1.657-2.551 3.228-5.495 4.546-8.574l0.147-0.386c1.398-2.931 2.574-6.352 3.355-9.921l0.059-0.319c0.543-3.079 0.853-6.623 0.853-10.24s-0.31-7.161-0.906-10.608l0.053 0.368c-0.839-3.888-2.015-7.309-3.538-10.534l0.125 0.294c-1.465-3.465-3.036-6.409-4.834-9.193l0.141 0.233c-4.148-5.84-9.094-10.785-14.743-14.805l-0.19-0.129-8.96-4.693c-2.931-1.398-6.352-2.574-9.921-3.355l-0.319-0.059h-10.24c-14.833 0.178-28.148 6.534-37.517 16.608l-0.029 0.032zM765.013 389.12c-19.58-123.622-125.391-217.010-253.013-217.010s-233.433 93.388-252.823 215.555l-0.19 1.455h85.333c17.896-76.579 85.589-132.744 166.4-132.744s148.504 56.165 166.172 131.589l0.228 1.155z" />
<glyph unicode="&#xe937;" glyph-name="ui-emoticon-neutral" d="M512 853.334c-235.641 0-426.667-191.025-426.667-426.667s191.025-426.667 426.667-426.667c235.641 0 426.667 191.025 426.667 426.667v0c0 235.641-191.025 426.667-426.667 426.667v0zM512 85.334c-188.513 0-341.333 152.82-341.333 341.333s152.82 341.333 341.333 341.333c188.513 0 341.333-152.82 341.333-341.333v0c0-188.513-152.82-341.333-341.333-341.333v0zM346.453 517.12c-1.905 2.358-3.61 5.018-5.009 7.856l-0.111 0.25c-1.657 2.551-3.228 5.495-4.546 8.574l-0.147 0.386c-1.398 2.931-2.574 6.352-3.355 9.921l-0.059 0.319c-0.101 1.531-0.159 3.319-0.159 5.12s0.058 3.589 0.171 5.362l-0.012-0.242c0 0.061 0 0.134 0 0.206 0 14.641 6.045 27.871 15.775 37.329l0.012 0.012c1.689 1.857 3.502 3.535 5.45 5.048l0.097 0.072 8.96 4.693c2.945 1.281 6.382 2.318 9.961 2.946l0.279 0.041c3.075 0.792 6.604 1.247 10.24 1.247s7.165-0.455 10.535-1.311l-0.295 0.064c3.858-0.669 7.295-1.706 10.542-3.102l-0.302 0.116 8.96-4.693c3.068-2.007 5.727-4.26 8.081-6.799l0.025-0.028c9.742-9.47 15.787-22.699 15.787-37.34 0-0.073 0-0.145 0-0.217v0.011c0.101-1.531 0.159-3.319 0.159-5.12s-0.058-3.589-0.171-5.362l0.012 0.242c-0.839-3.888-2.015-7.309-3.538-10.534l0.125 0.294c-1.465-3.465-3.036-6.409-4.834-9.193l0.141 0.233c-4.148-5.84-9.094-10.785-14.743-14.805l-0.19-0.129-8.96-4.693c-2.931-1.398-6.352-2.574-9.921-3.355l-0.319-0.059h-20.48c-3.888 0.839-7.309 2.015-10.534 3.538l0.294-0.125-9.813 8.107c-3.089 1.51-5.749 3.215-8.188 5.184l0.081-0.064zM692.48 564.907c0.543-3.079 0.853-6.623 0.853-10.24s-0.31-7.161-0.906-10.608l0.053 0.368c-0.839-3.888-2.015-7.309-3.538-10.534l0.125 0.294c-1.465-3.465-3.036-6.409-4.834-9.193l0.141 0.233c-4.148-5.84-9.094-10.785-14.743-14.805l-0.19-0.129-8.96-4.693c-2.931-1.398-6.352-2.574-9.921-3.355l-0.319-0.059h-10.24c-0.212-0.003-0.462-0.005-0.712-0.005-29.22 0-52.907 23.687-52.907 52.907 0 14.894 6.155 28.351 16.059 37.966l0.013 0.013c2.333 1.592 5.002 3.024 7.82 4.164l0.286 0.102 8.96 4.693c2.945 1.281 6.382 2.318 9.961 2.946l0.279 0.041c3.075 0.792 6.604 1.247 10.24 1.247s7.165-0.455 10.535-1.311l-0.295 0.064c3.858-0.669 7.295-1.706 10.542-3.102l-0.302 0.116 8.96-4.693c5.84-4.148 10.785-9.094 14.805-14.743l0.129-0.19c1.657-2.551 3.228-5.495 4.546-8.574l0.147-0.386c1.279-2.415 2.439-5.244 3.325-8.192l0.088-0.341zM341.333 341.334h341.333v-85.333h-341.333z" />
<glyph unicode="&#xe938;" glyph-name="ui-emoticon-sad" d="M331.52 544.427c-0.101 1.531-0.159 3.319-0.159 5.12s0.058 3.589 0.171 5.362l-0.012-0.242c0 0.061 0 0.134 0 0.206 0 14.641 6.045 27.871 15.775 37.329l0.012 0.012c2.13 1.872 4.505 3.567 7.042 5.010l9.171 4.804c2.945 1.281 6.382 2.318 9.961 2.946l0.279 0.041c3.075 0.792 6.604 1.247 10.24 1.247s7.165-0.455 10.535-1.311l-0.295 0.064c3.858-0.669 7.295-1.706 10.542-3.102l-0.302 0.116 8.96-4.693c3.068-2.007 5.727-4.26 8.081-6.799l0.025-0.028c9.742-9.47 15.787-22.699 15.787-37.34 0-0.073 0-0.145 0-0.217v0.011c0.101-1.531 0.159-3.319 0.159-5.12s-0.058-3.589-0.171-5.362l0.012 0.242c-0.839-3.888-2.015-7.309-3.538-10.534l0.125 0.294c-1.465-3.465-3.036-6.409-4.834-9.193l0.141 0.233c-4.148-5.84-9.094-10.785-14.743-14.805l-0.19-0.129-8.96-4.693c-2.931-1.398-6.352-2.574-9.921-3.355l-0.319-0.059h-20.48c-3.888 0.839-7.309 2.015-10.534 3.538l0.294-0.125-9.813 8.107c-5.093 3.769-9.458 8.133-13.108 13.060l-0.118 0.167c-1.657 2.551-3.228 5.495-4.546 8.574l-0.147 0.386c-1.971 2.947-3.698 6.327-5.012 9.905l-0.108 0.335zM640 501.76h10.24c3.888 0.839 7.309 2.015 10.534 3.538l-0.294-0.125 8.96 4.693c5.183 4.345 9.574 9.415 13.073 15.093l0.153 0.267c1.657 2.551 3.228 5.495 4.546 8.574l0.147 0.386c1.398 2.931 2.574 6.352 3.355 9.921l0.059 0.319c0.543 3.079 0.853 6.623 0.853 10.24s-0.31 7.161-0.906 10.608l0.053-0.368c-0.839 3.888-2.015 7.309-3.538 10.534l0.125-0.294c-1.465 3.465-3.036 6.409-4.834 9.193l0.141-0.233c-3.769 5.093-8.133 9.458-13.060 13.108l-0.167 0.118-8.96 4.693c-2.945 1.281-6.382 2.318-9.961 2.946l-0.279 0.041c-3.075 0.792-6.604 1.247-10.24 1.247s-7.165-0.455-10.535-1.311l0.295 0.064c-3.858-0.669-7.295-1.706-10.542-3.102l0.302 0.116-8.96-4.693c-3.068-2.007-5.727-4.26-8.081-6.799l-0.025-0.028c-8.601-9.435-13.869-22.040-13.869-35.875 0-28.781 22.797-52.237 51.319-53.296l0.097-0.003zM501.333 426.667c-0.013 0-0.028 0-0.044 0-102.717 0-188.479-72.595-208.779-169.277l-0.244-1.389h88.747c18.382 49.611 65.296 84.33 120.32 84.33s101.938-34.719 120.032-83.444l0.288-0.886h88.747c-20.544 98.072-106.306 170.667-209.023 170.667-0.015 0-0.031 0-0.046 0h0.002zM938.667 426.667c0-235.641-191.025-426.667-426.667-426.667s-426.667 191.025-426.667 426.667c0 235.641 191.025 426.667 426.667 426.667v0c235.641 0 426.667-191.025 426.667-426.667v0zM853.333 426.667c0 188.513-152.82 341.333-341.333 341.333s-341.333-152.82-341.333-341.333c0-188.513 152.82-341.333 341.333-341.333v0c188.513 0 341.333 152.82 341.333 341.333v0z" />
<glyph unicode="&#xe939;" glyph-name="ui-envelop" d="M810.667 768h-597.333c-70.692 0-128-57.308-128-128v0-426.667c0-70.692 57.308-128 128-128v0h597.333c70.692 0 128 57.308 128 128v0 426.667c0 70.692-57.308 128-128 128v0zM770.56 682.667l-232.107-181.333c-7.198-5.728-16.421-9.19-26.453-9.19s-19.256 3.462-26.541 9.257l0.087-0.067-232.107 181.333zM810.667 170.667h-597.333c-23.564 0-42.667 19.103-42.667 42.667v0 426.667l262.4-205.227c21.518-16.98 49.028-27.235 78.933-27.235s57.415 10.256 79.205 27.442l-0.271-0.206 262.4 205.227v-426.667c0-23.564-19.103-42.667-42.667-42.667v0z" />
<glyph unicode="&#xe93a;" glyph-name="ui-error" d="M512 853.334c-235.641 0-426.667-191.025-426.667-426.667s191.025-426.667 426.667-426.667c235.641 0 426.667 191.025 426.667 426.667v0c0 235.641-191.025 426.667-426.667 426.667v0zM512 85.334c-188.513 0-341.333 152.82-341.333 341.333s152.82 341.333 341.333 341.333c188.513 0 341.333-152.82 341.333-341.333v0c0-188.513-152.82-341.333-341.333-341.333v0zM554.667 341.334h-85.333v298.667h85.333zM549.547 293.547c9.554-9.635 15.457-22.902 15.457-37.548 0-29.339-23.691-53.145-52.986-53.332h-10.258c-3.888 0.839-7.309 2.015-10.534 3.538l0.294-0.125-8.96 7.253c-3.068 2.007-5.727 4.26-8.081 6.799l-0.025 0.028c-9.761 9.539-15.814 22.836-15.814 37.547s6.053 28.008 15.804 37.537l0.010 0.010c2.379 2.567 5.039 4.82 7.945 6.727l0.162 0.1 8.96 4.693c2.977 1.495 6.44 2.55 10.095 2.973l0.145 0.014c2.738 0.507 5.89 0.796 9.108 0.796 15.29 0 29.052-6.539 38.644-16.972l0.034-0.038z" />
<glyph unicode="&#xe93b;" glyph-name="ui-euro" d="M375.893 554.667h221.44v-85.333h-252.16c-2.231-12.689-3.619-27.43-3.838-42.455l-0.002-0.212c0.221-15.236 1.609-29.977 4.079-44.348l-0.239 1.681h252.16v-85.333h-221.44c45.152-76.782 127.36-127.504 221.415-127.504 65.693 0 125.607 24.744 170.929 65.421l-0.238-0.21v-104.96c-48.933-28.714-107.77-45.673-170.567-45.673-142.227 0-264.136 86.988-315.428 210.663l-0.832 2.263h-110.507v85.333h88.32c-1.762 12.69-2.843 27.479-2.985 42.493l-0.001 0.173c0.143 15.187 1.224 29.977 3.188 44.486l-0.201-1.819h-88.32v85.333h110.507c52.123 125.938 174.033 212.926 316.259 212.926 62.797 0 121.634-16.958 172.18-46.545l-1.613 0.872v-104.96c-45.084 40.466-104.998 65.211-170.691 65.211-94.055 0-176.263-50.722-220.763-126.306l-0.653-1.198z" />
<glyph unicode="&#xe93c;" glyph-name="ui-external-link" d="M896 768v-170.667l-85.333-85.333v152.747l-232.107-232.107-60.16 60.587 232.107 232.107h-153.173l85.333 85.333h170.667c23.564 0 42.667-19.103 42.667-42.667v0zM725.333 170.667c0-23.564-19.103-42.667-42.667-42.667v0h-426.667c-23.564 0-42.667 19.103-42.667 42.667v0 426.667c0 23.564 19.103 42.667 42.667 42.667v0h213.333l85.333 85.333h-298.667c-70.692 0-128-57.308-128-128v0-426.667c0-70.692 57.308-128 128-128v0h426.667c70.692 0 128 57.308 128 128v0 298.667l-85.333-85.333z" />
<glyph unicode="&#xe93d;" glyph-name="ui-facebook" d="M938.667 806.4v-759.467c0-25.921-21.013-46.933-46.933-46.933v0h-209.067v341.333h106.667l21.333 128h-128v85.333c0 23.564 19.103 42.667 42.667 42.667v0h85.333v122.027c-30.925 3.633-66.945 5.799-103.435 5.972l-0.245 0.001c-98.56 0-152.32-61.013-152.32-170.667v-85.333h-128v-128h128v-341.333h-422.4c-25.921 0-46.933 21.013-46.933 46.933v0 759.467c0 25.921 21.013 46.933 46.933 46.933v0h759.467c25.921 0 46.933-21.013 46.933-46.933v0z" />
<glyph unicode="&#xe93e;" glyph-name="ui-female" d="M512 618.667c82.475 0 149.333 66.859 149.333 149.333s-66.859 149.333-149.333 149.333c-82.475 0-149.333-66.859-149.333-149.333v0c0-82.475 66.859-149.333 149.333-149.333v0zM512 832c35.346 0 64-28.654 64-64s-28.654-64-64-64c-35.346 0-64 28.654-64 64v0c0 35.346 28.654 64 64 64v0zM758.187 292.267l-80.64 128-16.64 38.4c0 82.475-66.859 149.333-149.333 149.333s-149.333-66.859-149.333-149.333v0l-16.213-37.547-81.067-128c-10.671-16.494-17.014-36.653-17.014-58.294 0-18.983 4.881-36.827 13.456-52.343l-0.282 0.557c17.348-32.955 51.36-55.041 90.531-55.041 0.123 0 0.245 0 0.368 0.001h31.981v-170.667h85.333v170.667h85.333v-170.667h85.333v170.667h32c38.81 0.022 72.546 21.721 89.76 53.645l0.267 0.542c8.293 14.959 13.174 32.803 13.174 51.786 0 21.641-6.343 41.8-17.271 58.72l0.258-0.426zM686.933 223.147c-2.547-5.82-8.256-9.813-14.897-9.813-0.013 0-0.026 0-0.039 0h-319.998c-0.011 0-0.024 0-0.037 0-6.641 0-12.35 3.993-14.856 9.709l-0.041 0.104c-2.106 3.332-3.356 7.386-3.356 11.733s1.25 8.402 3.41 11.825l-0.054-0.092 85.333 130.987c0.783 1.856 1.381 4.014 1.691 6.264l0.015 0.136 20.48 47.787c2.054 4.914 3.297 10.616 3.413 16.595l0.001 0.045c0 35.346 28.654 64 64 64s64-28.654 64-64v0c0.012-6.014 1.266-11.732 3.52-16.916l-0.107 0.276 20.907-47.787c0.956-2.281 2.101-4.247 3.463-6.041l-0.049 0.068 82.773-128c2.961-3.737 4.751-8.519 4.751-13.72 0-4.953-1.623-9.527-4.366-13.219l0.042 0.059z" />
<glyph unicode="&#xe93f;" glyph-name="ui-filter" d="M426.667 256h170.667v-85.333h-170.667zM298.667 384h426.667v85.333h-426.667zM170.667 682.667v-85.333h682.667v85.333z" />
<glyph unicode="&#xe940;" glyph-name="ui-fingerprint" d="M512 640c-117.821 0-213.333-95.513-213.333-213.333v0-213.333h-85.333v213.333c0 164.949 133.718 298.667 298.667 298.667s298.667-133.718 298.667-298.667v0h-85.333c0 117.821-95.513 213.333-213.333 213.333v0zM512 896c-259.206 0-469.333-210.128-469.333-469.333v0-213.333c-0.034-1.413-0.054-3.078-0.054-4.747 0-115.229 93.411-208.64 208.64-208.64 1.669 0 3.334 0.020 4.994 0.059l-0.247-0.005h85.333v85.333h-85.333c-0.9-0.023-1.96-0.037-3.023-0.037-69.043 0-125.013 55.97-125.013 125.013 0 1.063 0.013 2.123 0.040 3.18l-0.003-0.157v213.333c2.845 210.923 173.077 381.155 383.73 383.997l0.27 0.003c0.007 0 0.015 0 0.024 0 210.577 0 381.566-169.499 383.974-379.506l0.002-0.228v-132.267c0-117.821-95.513-213.333-213.333-213.333s-213.333 95.513-213.333 213.333v0 128c0 23.564 19.103 42.667 42.667 42.667s42.667-19.103 42.667-42.667v0-128c0-70.692 57.308-128 128-128s128 57.308 128 128v0 42.667h-85.333v-42.667c0-23.564-19.103-42.667-42.667-42.667s-42.667 19.103-42.667 42.667v0 128c0 70.692-57.308 128-128 128s-128-57.308-128-128v0-128c2.367-163.988 134.678-296.3 298.442-298.664l0.225-0.003c163.988 2.367 296.3 134.678 298.664 298.442l0.003 0.225v132.267c-2.415 257.364-211.609 465.067-469.314 465.067-0.007 0-0.014 0-0.021 0h0.001z" />
<glyph unicode="&#xe941;" glyph-name="ui-fire" d="M810.667 518.827c-23.564 0-42.667-19.103-42.667-42.667v0-6.827c0-119.467-71.68-128-85.333-128-3.803 0.101-7.165 1.902-9.367 4.668l-0.019 0.025c-2.133 2.987-10.24 18.773 6.4 69.12 95.573 334.080-194.987 435.2-197.973 436.053-3.988 1.361-8.583 2.146-13.361 2.146-9.408 0-18.105-3.045-25.159-8.203l0.121 0.084c-10.166-7.877-16.647-20.089-16.647-33.814 0-0.262 0.002-0.524 0.007-0.785l-0.001 0.039c0.023-3.166 0.036-6.912 0.036-10.66 0-58.162-3.113-115.597-9.18-172.147l0.611 7.021c-36.922 53.399-84.879 96.58-140.805 126.943l-2.128 1.057c-5.61 2.903-12.247 4.605-19.28 4.605-23.564 0-42.667-19.103-42.667-42.667 0-4.854 0.81-9.518 2.303-13.865l-0.090 0.3c10.24-30.72 30.72-123.733 2.56-180.48-27.744-55.239-44.968-120.059-47.338-188.652l-0.022-0.788c0-188.513 152.82-341.333 341.333-341.333s341.333 152.82 341.333 341.333v0 134.827c0 23.564-19.103 42.667-42.667 42.667v0zM512 85.334c-141.385 0-256 114.615-256 256v0c2.441 55.506 16.19 107.247 38.984 153.75l-1.011-2.283c15.121 32.399 23.944 70.343 23.944 110.346 0 7.716-0.328 15.355-0.971 22.904l0.068-0.984c40.217-39.884 65.555-94.717 66.982-155.466l0.005-0.267c0.143-23.455 19.191-42.414 42.666-42.414 16.462 0 30.747 9.323 37.862 22.978l0.112 0.236c4.693 8.96 39.68 85.333 46.080 291.413 59.307-42.667 137.813-128 88.747-301.227-9.248-19.442-14.648-42.248-14.648-66.316 0-28.651 7.653-55.514 21.026-78.657l-0.405 0.759c17.852-23.749 45.646-39.192 77.083-40.103l0.144-0.003c28.493 0.622 55.026 8.461 78.012 21.752l-0.785-0.419c-29.438-111.293-129.229-192-247.871-192-0.008 0-0.016 0-0.024 0h0.001z" />
<glyph unicode="&#xe942;" glyph-name="ui-flag" d="M827.733 763.734c-5.139 2.367-11.151 3.747-17.485 3.747-11.018 0-21.061-4.177-28.632-11.033l0.036 0.032c-34.097-20.259-75.172-32.232-119.044-32.232-7.962 0-15.831 0.394-23.591 1.165l0.981-0.079c-3.353-0.164-7.282-0.258-11.233-0.258-40.591 0-78.876 9.875-112.583 27.354l1.363-0.643c-35.575 18.491-77.677 29.335-122.312 29.335-19.080 0-37.697-1.982-55.657-5.75l1.756 0.308v34.987h-85.333v-768h85.333v262.827c14.961 3.86 32.137 6.076 49.83 6.076 33.78 0 65.674-8.078 93.855-22.407l-1.179 0.544c42.45-21.368 92.515-33.879 145.502-33.879 3.748 0 7.481 0.063 11.199 0.187l-0.541-0.014c141.227 0 194.987 49.493 200.533 55.040 7.861 7.709 12.749 18.426 12.8 30.284v384.010c-0.293 17.112-10.615 31.743-25.328 38.292l-0.272 0.108zM768 364.374c-33.595-14.78-72.761-23.382-113.935-23.382-4.947 0-9.865 0.124-14.751 0.37l0.686-0.027c-2.92-0.123-6.345-0.193-9.787-0.193-40.449 0-78.636 9.688-112.366 26.87l1.406-0.65c-36.163 18.38-78.857 29.148-124.066 29.148-19.055 0-37.663-1.913-55.642-5.557l1.788 0.303v298.667c14.982 4.093 32.184 6.444 49.935 6.444 32.871 0 63.86-8.063 91.094-22.32l-1.083 0.516c43-21.911 93.779-34.749 147.556-34.749 3.926 0 7.836 0.068 11.729 0.204l-0.565-0.016c2.066-0.035 4.505-0.055 6.948-0.055 43.127 0 84.792 6.255 124.14 17.906l-3.088-0.784z" />
<glyph unicode="&#xe943;" glyph-name="ui-folder" d="M810.667 643.414h-261.973c-11.656 0.051-22.2 4.767-29.869 12.376l-78.077 78.077c-23.143 23.171-55.12 37.515-90.447 37.547h-136.966c-70.692 0-128-57.308-128-128v0-426.667c0-70.692 57.308-128 128-128v0 0h597.333c70.692 0 128 57.308 128 128v0 298.667c0 70.692-57.308 128-128 128v0zM853.333 216.747c0-23.564-19.103-42.667-42.667-42.667v0h-597.333c-23.564 0-42.667 19.103-42.667 42.667v0 426.667c0 23.564 19.103 42.667 42.667 42.667v0h136.96c11.656-0.051 22.2-4.767 29.869-12.376l-0.003 0.003 78.080-76.373c23.143-23.171 55.12-37.515 90.447-37.547h261.98c23.564 0 42.667-19.103 42.667-42.667v0z" />
<glyph unicode="&#xe944;" glyph-name="ui-forward" d="M853.333 508.16l-227.84 143.36c-15.396 10.041-34.242 16.013-54.482 16.013-17.901 0-34.71-4.671-49.277-12.861l0.506 0.261c-30.674-16.324-51.202-48.089-51.202-84.649 0-0.241 0.001-0.481 0.003-0.721v0.037-38.827l-188.587 120.747c-15.475 10.034-34.397 16-54.713 16-17.965 0-34.841-4.665-49.482-12.85l0.514 0.264c-30.426-16.284-50.774-47.849-50.774-84.166 0-0.11 0-0.221 0.001-0.331v0.017-287.573c-0.005-0.346-0.007-0.755-0.007-1.164 0-36.32 20.35-67.887 50.271-83.92l0.51-0.249c14.112-8.051 31.010-12.798 49.017-12.798 20.327 0 39.242 6.049 55.041 16.445l-0.378-0.234 186.88 120.747v-38.827c-0.002-0.203-0.002-0.444-0.002-0.684 0-36.56 20.528-68.326 50.687-84.399l0.515-0.251c14.045-8.060 30.878-12.813 48.82-12.813 20.253 0 39.091 6.056 54.803 16.456l-0.37-0.23 229.547 144.213c27.351 17.232 45.257 47.272 45.257 81.493s-17.906 64.261-44.861 81.26l-0.397 0.233zM464.213 417.28l-227.413-143.787c-2.466-1.361-5.406-2.162-8.533-2.162s-6.067 0.801-8.626 2.209l0.093-0.047c-3.622 1.711-6.139 5.227-6.398 9.355l-0.002 0.032v287.573c0.096 4.329 2.658 8.037 6.333 9.785l0.067 0.029c2.363 1.183 5.125 1.951 8.046 2.13l0.060 0.003c3.313-0.166 6.376-1.095 9.062-2.613l-0.102 0.053 225.28-143.787c3.649-1.62 6.148-5.212 6.148-9.387s-2.499-7.767-6.082-9.361l-0.065-0.026zM805.547 417.28l-225.707-143.787c-2.396-1.362-5.264-2.165-8.32-2.165s-5.924 0.803-8.405 2.21l0.085-0.044c-3.853 1.74-6.545 5.431-6.825 9.779l-0.002 0.034v287.147c0.282 4.382 2.974 8.074 6.754 9.784l0.072 0.029c2.363 1.183 5.125 1.951 8.046 2.13l0.060 0.003c3.17-0.111 6.1-1.049 8.608-2.603l-0.075 0.043 225.707-143.787c3.36-1.84 5.6-5.352 5.6-9.387s-2.24-7.546-5.545-9.359l-0.055-0.028z" />
<glyph unicode="&#xe945;" glyph-name="ui-fullscreen-enter" d="M853.333 512v128c0 70.692-57.308 128-128 128v0h-128v-85.333h110.507l-195.84-195.84-195.84 195.84h110.507v85.333h-128c-70.692 0-128-57.308-128-128v0-128h85.333v110.507l195.84-195.84-195.84-195.84v110.507h-85.333v-128c0-70.692 57.308-128 128-128v0h128v85.333h-110.507l195.84 195.84 195.84-195.84h-110.507v-85.333h128c70.692 0 128 57.308 128 128v0 128h-85.333v-110.507l-195.84 195.84 195.84 195.84v-110.507z" />
<glyph unicode="&#xe946;" glyph-name="ui-fullscreen-exit" d="M853.333 597.334v-85.333h-128c-70.692 0-128 57.308-128 128v0 128h85.333v-128c0-23.564 19.103-42.667 42.667-42.667v0zM597.333 213.334v-128h85.333v128c0 23.564 19.103 42.667 42.667 42.667v0h128v85.333h-128c-70.692 0-128-57.308-128-128v0zM298.667 341.334h-128v-85.333h128c23.564 0 42.667-19.103 42.667-42.667v0-128h85.333v128c0 70.692-57.308 128-128 128v0zM341.333 640c0-23.564-19.103-42.667-42.667-42.667v0h-128v-85.333h128c70.692 0 128 57.308 128 128v0 128h-85.333z" />
<glyph unicode="&#xe947;" glyph-name="ui-graphview" d="M341.333 768h-42.667c-70.692 0-128-57.308-128-128v0-426.667c0-70.692 57.308-128 128-128v0h42.667c70.692 0 128 57.308 128 128v0 426.667c0 70.692-57.308 128-128 128v0zM384 213.334c0-23.564-19.103-42.667-42.667-42.667v0h-42.667c-23.564 0-42.667 19.103-42.667 42.667v0 426.667c0 23.564 19.103 42.667 42.667 42.667v0h42.667c23.564 0 42.667-19.103 42.667-42.667v0zM725.333 384h-42.667c-70.692 0-128-57.308-128-128v0-42.667c0-70.692 57.308-128 128-128v0h42.667c70.692 0 128 57.308 128 128v0 42.667c0 70.692-57.308 128-128 128v0zM768 213.334c0-23.564-19.103-42.667-42.667-42.667v0h-42.667c-23.564 0-42.667 19.103-42.667 42.667v0 42.667c0 23.564 19.103 42.667 42.667 42.667v0h42.667c23.564 0 42.667-19.103 42.667-42.667v0z" />
<glyph unicode="&#xe948;" glyph-name="ui-gridview" d="M341.333 768h-42.667c-70.692 0-128-57.308-128-128v0-42.667c0-70.692 57.308-128 128-128v0h42.667c70.692 0 128 57.308 128 128v0 42.667c0 70.692-57.308 128-128 128v0zM384 597.334c0-23.564-19.103-42.667-42.667-42.667v0h-42.667c-23.564 0-42.667 19.103-42.667 42.667v0 42.667c0 23.564 19.103 42.667 42.667 42.667v0h42.667c23.564 0 42.667-19.103 42.667-42.667v0zM341.333 384h-42.667c-70.692 0-128-57.308-128-128v0-42.667c0-70.692 57.308-128 128-128v0h42.667c70.692 0 128 57.308 128 128v0 42.667c0 70.692-57.308 128-128 128v0zM384 213.334c0-23.564-19.103-42.667-42.667-42.667v0h-42.667c-23.564 0-42.667 19.103-42.667 42.667v0 42.667c0 23.564 19.103 42.667 42.667 42.667v0h42.667c23.564 0 42.667-19.103 42.667-42.667v0zM725.333 768h-42.667c-70.692 0-128-57.308-128-128v0-42.667c0-70.692 57.308-128 128-128v0h42.667c70.692 0 128 57.308 128 128v0 42.667c0 70.692-57.308 128-128 128v0zM768 597.334c0-23.564-19.103-42.667-42.667-42.667v0h-42.667c-23.564 0-42.667 19.103-42.667 42.667v0 42.667c0 23.564 19.103 42.667 42.667 42.667v0h42.667c23.564 0 42.667-19.103 42.667-42.667v0zM725.333 384h-42.667c-70.692 0-128-57.308-128-128v0-42.667c0-70.692 57.308-128 128-128v0h42.667c70.692 0 128 57.308 128 128v0 42.667c0 70.692-57.308 128-128 128v0zM768 213.334c0-23.564-19.103-42.667-42.667-42.667v0h-42.667c-23.564 0-42.667 19.103-42.667 42.667v0 42.667c0 23.564 19.103 42.667 42.667 42.667v0h42.667c23.564 0 42.667-19.103 42.667-42.667v0z" />
<glyph unicode="&#xe949;" glyph-name="ui-hash" d="M853.333 512v85.333h-170.667v170.667h-85.333v-170.667h-170.667v170.667h-85.333v-170.667h-170.667v-85.333h170.667v-170.667h-170.667v-85.333h170.667v-170.667h85.333v170.667h170.667v-170.667h85.333v170.667h170.667v85.333h-170.667v170.667zM597.333 341.334h-170.667v170.667h170.667z" />
<glyph unicode="&#xe94a;" glyph-name="ui-heart" d="M512 85.334c-0.096 0-0.211 0-0.325 0-35.608 0-67.739 14.887-90.508 38.777l-0.048 0.050-267.52 276.053c-10.63 10.879-20.196 22.887-28.476 35.798l-0.537 0.895c-2.734 4.033-5.301 8.657-7.453 13.506l-0.227 0.574-4.693 8.107c-2.987 6.4-6.4 12.373-8.96 19.2-2.249 5.223-4.437 11.616-6.174 18.192l-0.226 1.008-2.56 8.96c-1.608 4.578-3.086 10.169-4.153 15.905l-0.114 0.735c-2.982 14.045-4.689 30.183-4.689 46.72s1.707 32.675 4.955 48.247l-0.266-1.527c1.107 6.222 2.586 11.67 4.489 16.914l-0.222-0.701 2.56 7.253c2.087 7.745 4.272 14.133 6.812 20.338l-0.412-1.138c2.805 7.307 5.817 13.49 9.286 19.371l-0.326-0.597 4.267 8.533c2.56 4.693 5.12 9.813 8.107 14.507 17.262 26.69 38.877 48.985 64.078 66.477l0.775 0.509c4.071 3.012 8.683 5.849 13.532 8.284l0.548 0.249 9.813 5.973c5.114 3.152 11.14 6.292 17.389 9.015l0.958 0.372c5.324 2.471 11.706 4.801 18.301 6.616l0.899 0.211 5.12 2.56 16.64 4.693c12.814 2.684 27.55 4.236 42.644 4.267h9.41c0.063 0 0.138 0 0.213 0 15.027 0 29.691-1.554 43.84-4.509l-1.386 0.242 16.64-4.693 8.107-2.56c7.599-2.132 13.977-4.458 20.131-7.197l-0.931 0.37c7.207-3.094 13.232-6.234 18.998-9.757l-0.652 0.37 8.107-4.267c5.656-2.86 10.403-5.695 14.939-8.815l-0.433 0.281c13.207-9.311 24.788-19.267 35.342-30.219l0.071-0.074 25.6-26.027 25.6 26.027c10.314 10.43 21.618 19.838 33.774 28.084l0.786 0.503c4.176 2.998 8.93 5.839 13.918 8.274l0.588 0.259 7.68 4.267c5.114 3.152 11.14 6.292 17.389 9.015l0.958 0.372c5.324 2.471 11.706 4.801 18.301 6.616l0.899 0.211 6.827 4.267 16.64 4.693c12.812 2.679 27.547 4.23 42.639 4.267h8.988c0.063 0 0.138 0 0.213 0 15.027 0 29.691-1.554 43.84-4.509l-1.386 0.242 16.64-4.693 8.107-2.56c7.494-2.026 13.876-4.356 20-7.154l-0.8 0.327c7.207-3.094 13.232-6.234 18.998-9.757l-0.652 0.37 7.68-4.267c5.756-2.704 10.652-5.548 15.275-8.758l-0.341 0.224c25.707-18.003 47.157-40.133 63.866-65.648l0.561-0.912c2.987-4.693 5.547-9.813 8.107-14.507l4.267-8.533c3.018-5.092 6.023-11.126 8.605-17.377l0.355-0.969c2.436-5.619 4.634-12.314 6.24-19.236l0.16-0.817 2.56-8.96c1.68-4.544 3.16-9.991 4.175-15.6l0.092-0.614c2.982-14.045 4.689-30.183 4.689-46.72s-1.707-32.675-4.955-48.247l0.266 1.527c-1.18-6.471-2.659-12.062-4.516-17.477l0.25 0.837-2.56-8.96c0-6.4-3.84-12.8-5.973-19.2s-5.973-12.8-9.387-19.2l-4.693-8.107c-2.379-5.423-4.946-10.047-7.883-14.399l0.203 0.319c-8.817-13.807-18.384-25.814-29.055-36.737l0.042 0.043-267.52-276.053c-22.817-23.943-54.95-38.832-90.56-38.832-0.412 0-0.825 0.002-1.236 0.006h0.063zM320 725.334v0c-9.777-0.376-19.024-1.447-28.039-3.171l1.159 0.184h-5.973l-12.8-3.84-8.96-2.987-9.387-6.827-11.52-6.4-5.547-2.56c-17.026-11.435-31.232-25.641-42.32-42.119l-0.347-0.548c-1.064-1.587-2.063-3.409-2.898-5.319l-0.089-0.228-6.4-11.52c-1.491-2.433-3.057-5.372-4.461-8.401l-0.232-0.559c-1.106-2.713-2.133-5.992-2.902-9.37l-0.085-0.443-3.84-13.227s0-4.267 0-5.973c-2.516-9.443-4.198-20.406-4.682-31.678l-0.011-0.322c-0.002-0.281-0.003-0.613-0.003-0.945 0-10.539 1.089-20.823 3.159-30.747l-0.17 0.973c-0.116-1.024-0.183-2.211-0.183-3.413s0.066-2.389 0.195-3.557l-0.013 0.144 3.413-12.8c0.948-3.939 1.973-7.215 3.182-10.4l-0.196 0.586c1.628-3.633 3.338-6.714 5.273-9.631l-0.153 0.245 5.973-11.947c0.792-1.958 1.797-3.648 3.016-5.158l-0.030 0.038c5.599-9.027 11.798-16.855 18.783-23.903l-0.010 0.010 269.227-276.053c7.69-7.542 18.235-12.197 29.867-12.197s22.177 4.655 29.874 12.203l-0.007-0.007 211.2 218.027 57.6 58.027c6.869 6.969 13.055 14.647 18.429 22.903l0.344 0.564c1.064 1.587 2.063 3.409 2.898 5.319l0.089 0.228 5.973 11.947c1.767 2.773 3.48 5.996 4.942 9.354l0.178 0.46c1.197 2.67 2.226 5.808 2.929 9.067l0.058 0.32 3.84 13.227s0 3.84 0 6.4c1.9 8.923 2.988 19.174 2.988 29.68 0 0.216 0 0.431-0.001 0.646v-0.033c0.001 0.196 0.001 0.428 0.001 0.661 0 10.787-1.088 21.32-3.16 31.496l0.172-1.010s0 3.84 0 5.973l-3.84 12.8c-0.953 4.128-1.979 7.551-3.191 10.884l0.205-0.644c-2.135 3.961-4.255 7.309-6.58 10.499l0.18-0.259-6.4 12.373c-0.924 2.138-1.923 3.96-3.068 5.676l0.081-0.129c-11.287 17.145-25.522 31.38-42.118 42.327l-0.548 0.34-5.547 2.987-11.52 5.12-8.533 5.12-8.96 2.56-12.8 3.84h-5.973c-7.271 2.089-16.092 3.883-25.116 5.026l-0.91 0.094h-3.84c-9.777-0.376-19.024-1.447-28.039-3.171l1.159 0.184h-5.973l-12.8-3.84-8.96-2.56-8.533-5.12-11.52-6.4-5.547-2.987c-8.608-5.546-16.038-11.891-22.525-19.1l-0.088-0.1-56.32-60.16c-7.772-8.055-18.662-13.057-30.72-13.057s-22.948 5.002-30.708 13.044l-0.012 0.013-54.613 58.027c-6.782 7.184-14.336 13.518-22.564 18.907l-0.476 0.293-6.827 2.987-12.8 6.4-8.533 4.693-9.387 2.987-12.373 4.267h-5.973c-7.315 1.971-16.158 3.622-25.199 4.619l-0.828 0.074z" />
<glyph unicode="&#xe94b;" glyph-name="ui-help" d="M512 853.334c-235.641 0-426.667-191.025-426.667-426.667s191.025-426.667 426.667-426.667c235.641 0 426.667 191.025 426.667 426.667v0c0 235.641-191.025 426.667-426.667 426.667v0zM512 85.334c-188.513 0-341.333 152.82-341.333 341.333s152.82 341.333 341.333 341.333c188.513 0 341.333-152.82 341.333-341.333v0c0-188.513-152.82-341.333-341.333-341.333v0zM512 682.667c-94.257 0-170.667-76.41-170.667-170.667v0-42.667h85.333v42.667c0 47.128 38.205 85.333 85.333 85.333s85.333-38.205 85.333-85.333v0c0-17.92-13.227-28.587-44.8-49.92-46.735-22.041-79.331-67.175-83.173-120.28l-0.027-0.467v-42.667h85.333v42.667c0 17.92 13.227 28.587 44.8 49.92 46.735 22.041 79.331 67.175 83.173 120.28l0.027 0.467c0 94.257-76.41 170.667-170.667 170.667v0zM541.44 256l-8.96 4.693c-2.931 1.398-6.352 2.574-9.921 3.355l-0.319 0.059c-3.079 0.611-6.619 0.961-10.24 0.961s-7.161-0.35-10.587-1.017l0.347 0.056c-3.888-0.839-7.309-2.015-10.534-3.538l0.294 0.125-8.96-4.693c-3.068-2.007-5.727-4.26-8.081-6.799l-0.025-0.028c-9.761-9.539-15.814-22.836-15.814-37.547s6.053-28.008 15.804-37.537l0.010-0.010c2.379-2.567 5.039-4.82 7.945-6.727l0.162-0.1 8.96-4.693c2.931-1.398 6.352-2.574 9.921-3.355l0.319-0.059h10.24c0.212-0.003 0.462-0.005 0.712-0.005 29.22 0 52.907 23.687 52.907 52.907 0 14.894-6.155 28.351-16.059 37.966l-0.013 0.013c-2.375 2.231-5.032 4.209-7.9 5.864l-0.206 0.11z" />
<glyph unicode="&#xe94c;" glyph-name="ui-hide" d="M951.467 359.68c-88.083-140.292-241.959-232.181-417.297-232.181-7.797 0-15.552 0.182-23.261 0.541l1.091-0.041c-25.095 0.122-49.689 1.668-73.87 4.563l3.043-0.297 81.493 81.067c3.396-0.102 7.39-0.159 11.398-0.159 144.572 0 271.559 75.293 343.887 188.805l0.981 1.648c4.153 6.466 6.62 14.358 6.62 22.827s-2.467 16.361-6.722 22.997l0.102-0.17c-15.842 25.42-33.163 47.489-52.578 67.515l0.098-0.102 60.16 60.587c24.281-25.086 45.861-53.048 64.11-83.248l1.17-2.086c11.43-18.78 18.196-41.49 18.196-65.78 0-24.58-6.929-47.543-18.939-67.040l0.317 0.553zM956.16 768l-682.667-682.667h-120.32l102.827 102.827c-76.073 40.492-138.1 98.418-182.304 168.686l-1.163 1.98c-11.964 19.108-19.059 42.326-19.059 67.2s7.095 48.092 19.373 67.738l-0.314-0.538c52.053 87.040 179.2 232.107 439.467 232.107 2.131 0.029 4.647 0.046 7.167 0.046 80.744 0 157.485-17.134 226.787-47.965l-3.555 1.412h2.56l90.88 89.173zM319.147 251.307l64.853 64.427c-26.3 29.324-42.451 68.222-42.666 110.889v0.044c0.955 93.528 76.995 168.978 170.658 168.978 42.463 0 81.304-15.508 111.168-41.168l-0.226 0.19 56.32 56.32c-49.208 18.38-106.067 29.017-165.411 29.017-0.648 0-1.295-0.001-1.942-0.004h0.1c-218.88 0-323.84-119.467-366.933-190.293-4.153-6.466-6.62-14.358-6.62-22.827s2.467-16.361 6.722-22.997l-0.102 0.17c40.995-65.943 99.139-117.779 168.258-150.031l2.408-1.009zM562.773 494.934c-13.973 10.571-31.617 16.968-50.75 17.067h-0.023c-47.128 0-85.333-38.205-85.333-85.333v0c0.099-19.157 6.495-36.801 17.222-50.988l-0.156 0.215z" />
<glyph unicode="&#xe94d;" glyph-name="ui-history" d="M554.667 597.334v-128h85.333v-85.333h-128c-23.564 0-42.667 19.103-42.667 42.667v0 170.667zM512 768c-188.513 0-341.333-152.82-341.333-341.333v0-110.507l-85.333 85.333-12.373 12.8-60.587-60.587 72.96-72.533 97.707-98.133c3.937-3.773 8.616-6.808 13.791-8.859l0.289-0.101c4.771-2.163 10.345-3.423 16.213-3.423s11.443 1.26 16.466 3.525l-0.253-0.102c5.464 2.152 10.143 5.187 14.095 8.974l-0.015-0.014 97.707 98.133 72.96 72.533-60.587 60.587-12.373-12.8-85.333-85.333v110.507c0 141.385 114.615 256 256 256s256-114.615 256-256c0-141.385-114.615-256-256-256v0h-42.667v-85.333h42.667c188.513 0 341.333 152.82 341.333 341.333s-152.82 341.333-341.333 341.333v0z" />
<glyph unicode="&#xe94e;" glyph-name="ui-home-diap" d="M938.667 512v-115.2l-85.333 77.653v-346.453c0-70.692-57.308-128-128-128v0h-426.667c-70.692 0-128 57.308-128 128v0 345.173l-85.333-77.653v116.48l341.333 308.907c22.54 20.227 52.493 32.594 85.333 32.594s62.793-12.368 85.453-32.7l-0.119 0.105z" />
<glyph unicode="&#xe94f;" glyph-name="ui-home" d="M597.333 819.627c-22.54 20.227-52.493 32.594-85.333 32.594s-62.793-12.368-85.453-32.7l0.119 0.105-341.333-307.627v-115.2l85.333 77.653v-346.453c0-70.692 57.308-128 128-128v0h426.667c70.692 0 128 57.308 128 128v0 345.173l85.333-77.653v116.48zM768 128c0-23.564-19.103-42.667-42.667-42.667v0h-426.667c-23.564 0-42.667 19.103-42.667 42.667v0 422.4l227.413 206.507c7.562 6.936 17.684 11.186 28.8 11.186s21.238-4.251 28.831-11.215l-0.031 0.028 226.987-206.507z" />
<glyph unicode="&#xe950;" glyph-name="ui-infinite" d="M981.333 426.667c0-141.385-114.615-256-256-256v0c-58.042 0.063-111.503 19.628-154.195 52.493l0.595-0.44c16.31 21.701 30.615 46.421 41.798 72.787l0.869 2.307c29.636-25.465 68.473-40.969 110.931-40.969 94.257 0 170.667 76.41 170.667 170.667s-76.41 170.667-170.667 170.667c-94.257 0-170.667-76.41-170.667-170.667 0-0.297 0.001-0.593 0.002-0.89v0.046c-0.060-52.619-15.986-101.506-43.249-142.149l0.583 0.922c-5.895-8.968-11.932-16.767-18.506-24.073l0.159 0.18s0 0-2.133-2.56c-5.657-6.58-11.371-12.564-17.379-18.239l-0.115-0.107-5.12-4.693c-5.547-5.12-11.52-9.813-17.493-14.507l-5.547-3.84c-6.928-5.063-14.874-10.148-23.127-14.749l-1.193-0.611c-8.533-4.693-17.493-8.96-26.453-12.8l-7.253-2.56c-6.4-2.133-13.227-4.693-20.48-6.4l-9.387-2.56c-5.738-1.589-12.689-2.938-19.796-3.775l-0.684-0.065-8.96-3.413c-9.813 0-19.627 0-29.867 0-141.385 0-256 114.615-256 256s114.615 256 256 256v0c58.042-0.063 111.503-19.628 154.195-52.493l-0.595 0.44c-16.362-21.937-30.678-46.947-41.806-73.62l-0.861-2.326c-29.635 25.462-68.47 40.964-110.925 40.964-94.257 0-170.667-76.41-170.667-170.667s76.41-170.667 170.667-170.667c94.257 0 170.667 76.41 170.667 170.667 0 0.599-0.003 1.197-0.009 1.794l0.001-0.091c0.060 52.619 15.986 101.506 43.249 142.149l-0.583-0.922c5.895 8.968 11.932 16.767 18.506 24.073l-0.159-0.18s0 0 2.133 2.56c5.657 6.58 11.371 12.564 17.379 18.239l0.115 0.107 4.693 4.693c5.547 5.12 11.52 9.813 17.493 14.507l5.547 3.84c6.928 5.063 14.874 10.148 23.127 14.749l1.193 0.611c8.533 4.693 17.493 8.96 26.453 12.8l7.253 2.56c6.4 0 13.227 4.693 20.48 6.4l9.387 2.56c5.738 1.589 12.689 2.938 19.796 3.775l0.684 0.065h8.96c9.813 0 19.627 0 29.867 0 0.133 0 0.291 0 0.449 0 140.185 0 254.052-112.678 255.975-252.406l0.002-0.181z" />
<glyph unicode="&#xe951;" glyph-name="ui-info-diap" d="M512 853.334c-235.641 0-426.667-191.025-426.667-426.667s191.025-426.667 426.667-426.667c235.641 0 426.667 191.025 426.667 426.667v0c0 235.641-191.025 426.667-426.667 426.667v0zM554.667 213.334h-85.333v298.667h85.333zM549.547 559.787c-9.609-9.609-22.884-15.552-37.547-15.552-29.326 0-53.099 23.773-53.099 53.099 0 14.663 5.943 27.938 15.552 37.547v0c9.723 9.355 22.962 15.117 37.547 15.117s27.823-5.762 37.564-15.134l-0.017 0.017c9.761-9.539 15.814-22.836 15.814-37.547s-6.053-28.008-15.804-37.537l-0.010-0.010z" />
<glyph unicode="&#xe952;" glyph-name="ui-info" d="M512 853.334c-235.641 0-426.667-191.025-426.667-426.667s191.025-426.667 426.667-426.667c235.641 0 426.667 191.025 426.667 426.667v0c0 235.641-191.025 426.667-426.667 426.667v0zM512 85.334c-188.513 0-341.333 152.82-341.333 341.333s152.82 341.333 341.333 341.333c188.513 0 341.333-152.82 341.333-341.333v0c0-188.513-152.82-341.333-341.333-341.333v0zM469.333 512h85.333v-298.667h-85.333zM549.547 634.88c9.742-9.47 15.787-22.699 15.787-37.34 0-0.073 0-0.145 0-0.217v0.011c0.101-1.531 0.159-3.319 0.159-5.12s-0.058-3.589-0.171-5.362l0.012 0.242c-0.839-3.888-2.015-7.309-3.538-10.534l0.125 0.294c-1.465-3.465-3.036-6.409-4.834-9.193l0.141 0.233c-4.148-5.84-9.094-10.785-14.743-14.805l-0.19-0.129-8.96-4.693c-2.931-1.398-6.352-2.574-9.921-3.355l-0.319-0.059h-10.24c-0.061 0-0.134 0-0.206 0-14.641 0-27.871 6.045-37.329 15.775l-0.012 0.012c-2.208 2.149-4.177 4.524-5.874 7.094l-0.099 0.159c-1.657 2.551-3.228 5.495-4.546 8.574l-0.147 0.386c-1.398 2.931-2.574 6.352-3.355 9.921l-0.059 0.319c-0.101 1.531-0.159 3.319-0.159 5.12s0.058 3.589 0.171 5.362l-0.012-0.242c0 0.061 0 0.134 0 0.206 0 14.641 6.045 27.871 15.775 37.329l0.012 0.012c9.736 9.771 23.204 15.816 38.084 15.816 3.43 0 6.785-0.321 10.037-0.935l-0.334 0.053c3.888-0.839 7.309-2.015 10.534-3.538l-0.294 0.125 8.96-4.693c2.031-2.030 3.858-4.264 5.448-6.668l0.099-0.159z" />
<glyph unicode="&#xe953;" glyph-name="ui-internet" d="M512 853.334v0c-235.641 0-426.667-191.025-426.667-426.667s191.025-426.667 426.667-426.667c235.641 0 426.667 191.025 426.667 426.667v0c0 235.641-191.025 426.667-426.667 426.667v0zM853.333 459.947h-107.52c0.004 0.714 0.006 1.558 0.006 2.402 0 101.351-31.951 195.24-86.331 272.142l0.991-1.477c105.61-51.096 179.974-152.124 192.724-271.571l0.13-1.496zM469.333 714.24c0-80.64 2.133-170.667 2.56-256h-107.093c11.093 141.653 61.867 217.6 104.533 256zM472.747 372.907c0-110.080 0-206.507 0-265.387-42.667 32.427-102.827 105.813-109.653 265.387zM558.080 372.907h99.413c-1.732-96.635-39.542-184.117-100.488-249.842l0.222 0.242c2.987 53.76 3.413 132.693 2.56 251.307zM558.080 458.24c0 73.387 0 159.573-2.987 260.693 42.667-34.56 97.28-108.8 104.107-260.693zM379.307 741.12c-59.772-77.166-96.853-174.566-99.825-280.498l-0.015-0.675h-108.8c13.119 127.287 94.466 232.83 206.404 280.331l2.236 0.843zM174.933 374.614h103.68c0-0.179 0-0.391 0-0.602 0-89.191 23.252-172.952 64.025-245.551l-1.304 2.527c-87.868 51.524-149.909 138.991-166.148 241.691l-0.252 1.936zM666.453 122.88c45.85 71.465 74.453 157.915 78.051 250.781l0.029 0.952h104.533c-17.69-110.568-86.368-202.058-180.708-250.837l-1.906-0.896z" />
<glyph unicode="&#xe954;" glyph-name="ui-kijkwijzer-6plus" d="M512 938.667c2.259 0.037 4.924 0.059 7.595 0.059 138.712 0 263.98-57.56 353.223-150.097l0.143-0.149c93.193-89.453 151.099-215.057 151.099-354.186 0-2.682-0.022-5.358-0.064-8.029l0.005 0.402c0.043-2.441 0.068-5.32 0.068-8.205 0-139.057-57.546-264.674-150.124-354.335l-0.131-0.127c-89.317-92.195-214.26-149.42-352.569-149.42-3.251 0-6.494 0.032-9.73 0.095l0.485-0.007c-2.441-0.043-5.32-0.068-8.205-0.068-139.057 0-264.674 57.546-354.335 150.124l-0.127 0.131c-92.2 89.715-149.401 214.994-149.401 353.633 0 2.876 0.025 5.746 0.074 8.61l-0.006-0.43c-0.053 2.675-0.082 5.829-0.082 8.99 0 138.041 57.054 262.757 148.867 351.852l0.122 0.118c90.455 93.208 216.902 151.051 356.859 151.051 1.142 0 2.283-0.004 3.423-0.012l-0.175 0.001zM344.747 677.12v-506.453l60.587-61.44h211.2l62.72 61.44v250.88l-66.987 64.853h-109.227l-34.56-34.56v182.613h89.173v-79.787h121.6v122.453l-62.72 62.72h-211.2zM558.080 383.147v-169.813h-88.747v170.667z" />
<glyph unicode="&#xe955;" glyph-name="ui-kijkwijzer-9plus" d="M469.333 469.334h85.333v170.667h-85.333zM617.813 128h-209.493l-66.987 48.64v122.027h128v-85.333h85.333v188.16l-32.853-17.493h-110.507l-69.973 49.067v249.6l66.133 42.667h210.347l64.853-42.667v-506.027zM515.413-85.333c282.035 0.97 510.293 229.827 510.293 511.997 0 282.77-229.23 512-512 512s-512-229.23-512-512c0-282.17 228.258-511.027 510.2-511.997h0.093z" />
<glyph unicode="&#xe956;" glyph-name="ui-kijkwijzer-12plus" d="M512 928.854c2.22 0.036 4.84 0.057 7.465 0.057 138.673 0 263.945-57.377 353.37-149.687l0.125-0.13c93.215-89.991 151.096-216.054 151.096-355.636 0-2.622-0.020-5.239-0.061-7.851l0.005 0.394c0.037-2.259 0.059-4.924 0.059-7.595 0-138.712-57.56-263.98-150.097-353.223l-0.149-0.143c-89.386-92.694-214.66-150.259-353.379-150.259-2.966 0-5.925 0.026-8.879 0.079l0.444-0.006c-2.441-0.043-5.32-0.068-8.205-0.068-139.057 0-264.674 57.546-354.335 150.124l-0.127 0.131c-92.186 89.315-149.405 214.253-149.405 352.554 0 2.956 0.026 5.905 0.078 8.848l-0.006-0.442c-0.040 2.332-0.062 5.083-0.062 7.839 0 137.839 56.689 262.437 148.024 351.752l0.091 0.089c90.181 93.873 216.527 152.423 356.554 153.173l0.14 0.001zM176.213 695.894v-63.147h77.227v-529.067h123.733v628.48h-97.28zM466.347 665.174v-121.6h128v81.067h88.32v-119.467l-217.173-182.613v-218.88h336.64v109.653h-213.333v56.747l213.333 176.213v218.88l-64 66.987h-210.773z" />
<glyph unicode="&#xe957;" glyph-name="ui-kijkwijzer-16plus" d="M512 938.667c2.259 0.037 4.924 0.059 7.595 0.059 138.712 0 263.98-57.56 353.223-150.097l0.143-0.149c93.202-89.856 151.084-215.799 151.084-355.261 0-2.304-0.016-4.604-0.047-6.9l0.004 0.348c0.037-2.259 0.059-4.924 0.059-7.595 0-138.712-57.56-263.98-150.097-353.223l-0.149-0.143c-89.453-93.193-215.057-151.099-354.186-151.099-2.682 0-5.358 0.022-8.029 0.064l0.402-0.005c-2.441-0.043-5.32-0.068-8.205-0.068-139.057 0-264.674 57.546-354.335 150.124l-0.127 0.131c-92.195 89.317-149.42 214.26-149.42 352.569 0 3.251 0.032 6.494 0.095 9.73l-0.007-0.485c-0.028 1.948-0.043 4.249-0.043 6.553 0 138.531 57.013 263.746 148.854 353.461l0.096 0.093c90.392 93.708 217.060 151.901 357.319 151.901 0.98 0 1.96-0.003 2.939-0.009l-0.151 0.001zM188.587 709.547v-61.013h75.093v-514.987h120.32v610.56h-93.867zM480.427 677.12v-480.427l63.147-63.147h202.667l64.427 63.147v238.933l-66.987 64.853h-107.093l-36.267-36.267v178.347h85.333v-76.8h125.013v111.36l-64.427 66.987h-204.8zM687.36 399.36v-162.133h-85.333v162.133z" />
<glyph unicode="&#xe958;" glyph-name="ui-kijkwijzer-alle-leeftijden" d="M316.16 632.32h79.36v-235.093h-79.36zM1024 426.667c0.037-2.259 0.059-4.924 0.059-7.595 0-138.712-57.56-263.98-150.097-353.223l-0.149-0.143c-89.453-93.193-215.057-151.099-354.186-151.099-2.682 0-5.358 0.022-8.029 0.064l0.402-0.005c-2.441-0.043-5.32-0.068-8.205-0.068-139.057 0-264.674 57.546-354.335 150.124l-0.127 0.131c-92.195 89.317-149.42 214.26-149.42 352.569 0 3.251 0.032 6.494 0.095 9.73l-0.007-0.485c-0.028 1.948-0.043 4.249-0.043 6.553 0 138.531 57.013 263.746 148.854 353.461l0.096 0.093c90.392 93.708 217.060 151.901 357.319 151.901 0.98 0 1.96-0.003 2.939-0.009l-0.151 0.001h2.987c2.259 0.037 4.924 0.059 7.595 0.059 138.712 0 263.98-57.56 353.223-150.097l0.143-0.149c93.202-89.856 151.084-215.799 151.084-355.261 0-2.304-0.016-4.604-0.047-6.9l0.004 0.348zM506.88 672.854l-58.88 65.28h-180.48l-62.72-65.28v-539.307h111.36v162.133h79.36v-162.133h111.36zM802.987 224.854h-99.413v513.28h-109.653v-604.587h209.067z" />
<glyph unicode="&#xe959;" glyph-name="ui-kijkwijzer-angst" d="M873.813 788.48c-89.386 92.694-214.66 150.259-353.379 150.259-2.966 0-5.925-0.026-8.879-0.079l0.444 0.006h-3.84c-0.576 0.002-1.257 0.004-1.938 0.004-140.258 0-266.924-58.192-357.172-151.748l-0.143-0.149c-91.937-89.808-148.95-215.023-148.95-353.554 0-2.304 0.016-4.604 0.047-6.901l-0.004 0.348c-0.037-2.259-0.059-4.924-0.059-7.595 0-138.712 57.56-263.98 150.097-353.223l0.149-0.143c89.856-93.202 215.799-151.084 355.261-151.084 2.304 0 4.604 0.016 6.9 0.047l-0.348-0.004c2.259-0.037 4.924-0.059 7.595-0.059 138.712 0 263.98 57.56 353.223 150.097l0.143 0.149c93.193 89.453 151.099 215.057 151.099 354.186 0 2.682-0.022 5.358-0.064 8.029l0.005-0.402c0.035 2.19 0.055 4.775 0.055 7.365 0 139.051-57.541 264.662-150.11 354.322l-0.131 0.127zM881.92 450.134c-18.898-14.937-40.589-27.576-63.952-36.927l-1.754-0.62c-38.4-18.347-64-29.44-75.947-33.707-8.039-0.559-17.422-0.877-26.88-0.877s-18.841 0.319-28.14 0.946l1.26-0.068c-30.72 0-58.88 0-85.333-2.133s-39.68-3.413-39.68-5.973 8.96-8.107 26.453-12.373 39.253-8.533 64.853-13.227l48.64-8.96c24.429-8.916 45.576-20.297 64.752-34.227l-0.752 0.52c19.572-11.097 36.022-25.369 49.219-42.301l0.275-0.366c8.929-20.525 14.88-44.33 16.603-69.298l0.037-0.675c2.428-10.514 3.82-22.588 3.82-34.987s-1.392-24.472-4.028-36.073l0.208 1.087c-4.043-6.578-8.855-12.205-14.413-16.988l-0.093-0.079c-4.156-4.23-9.84-6.946-16.158-7.251l-0.056-0.002c-0.153-0.009-0.332-0.014-0.512-0.014-4.738 0-8.656 3.51-9.295 8.071l-0.006 0.050c0 5.547-5.973 28.587-13.227 69.12-2.99 24.175-8.38 46.095-16.025 66.926l0.665-2.072c-9.329 11.624-20.008 21.625-31.934 29.967l-0.493 0.327c-13.745 11.681-29.306 21.921-46.041 30.135l-1.319 0.585c-17.493 6.827-42.667 15.787-77.227 26.453s-51.2 14.080-52.48 10.24c7.136-7.195 15.11-13.54 23.768-18.883l0.552-0.317c16.213-11.52 33.707-24.32 52.48-38.827 13.433-8.588 24.854-18.923 34.342-30.863l0.218-0.284c18.084-29.842 28.787-65.904 28.787-104.466 0-3.175-0.073-6.333-0.216-9.473l0.016 0.445c-6.371-25.225-16.96-47.328-31.097-66.674l0.377 0.541c-11.151-21.014-25.425-38.828-42.437-53.565l-0.23-0.195c-5.401-3.583-12.034-5.717-19.166-5.717-2.275 0-4.499 0.217-6.654 0.632l0.22-0.035c-5.973 2.133-8.533 9.387-7.253 21.333 7.137 22.554 14.516 41.202 22.991 59.234l-1.231-2.914c8 15.375 14.866 33.267 19.667 51.986l0.386 1.774c1.445 8.609 2.27 18.527 2.27 28.638 0 21.699-3.802 42.509-10.777 61.801l0.4-1.266c-10.286 16.108-21.69 30.089-34.515 42.623l-0.045 0.044c-18.773 20.907-30.293 30.72-34.133 29.44s-3.84-10.667-2.987-31.573 0-31.147-7.253-31.147-10.667 10.667-15.36 32.427-8.96 32.427-13.227 32.427-8.107-11.093-13.227-32.427-9.813-32.427-14.933-32.427-8.107 10.24-8.107 31.147c0.3 2.837 0.472 6.13 0.472 9.462 0 7.846-0.95 15.47-2.74 22.764l0.135-0.652c-3.84 0-15.787-8.107-35.413-28.587-13.779-12.191-25.529-26.25-34.963-41.864l-0.45-0.802c-5.376-17.826-8.471-38.311-8.471-59.519 0-10.46 0.753-20.744 2.207-30.801l-0.136 1.147c4.805-20.722 11.55-38.936 20.26-55.979l-0.634 1.365c6.831-14.627 14.063-33.135 20.263-52.109l1.070-3.784c0-11.947 0-19.2-7.253-21.333-1.935-0.38-4.159-0.597-6.434-0.597-7.132 0-13.765 2.134-19.296 5.798l0.13-0.081c-17.33 14.861-31.62 32.692-42.198 52.783l-0.469 0.977c-13.347 18.837-23.525 40.968-29.183 64.847l-0.257 1.286c-0.328 4.251-0.515 9.205-0.515 14.203 0 36.602 10.020 70.865 27.465 100.193l-0.498-0.903c5.073 6.391 10.676 11.994 16.855 16.904l0.212 0.163c8.96 7.253 18.773 14.933 29.44 22.187l31.573 22.613 24.32 17.92c5.973 4.693 8.96 8.107 8.96 9.387s-18.773 0-52.48-10.24-58.453-20.907-77.227-26.88c-17.722-8.725-32.998-18.817-46.829-30.56l0.322 0.266c-12.518-8.529-23.217-18.55-32.195-29.987l-0.232-0.307c0-2.987-5.973-24.32-13.227-64-3.993-26.985-9.351-50.616-16.292-73.559l0.932 3.586c-2.56-8.107-8.533-10.24-17.067-5.973-9.95 4.998-17.963 12.6-23.325 21.919l-0.142 0.267c-2.428 10.514-3.82 22.588-3.82 34.987s1.392 24.472 4.028 36.073l-0.208-1.087c1.76 25.643 7.711 49.448 17.18 71.379l-0.54-1.406c13.722 17.337 30.454 31.618 49.507 42.237l0.84 0.43c18.209 12.841 39.015 24.169 61.095 32.984l2.052 0.723 47.787 4.693c25.6 4.693 47.36 9.387 65.707 13.227s27.307 8.107 27.307 12.373-13.227 4.693-42.667 5.973-55.467 2.133-85.333 2.133c-8.039-0.559-17.422-0.877-26.88-0.877s-18.841 0.319-28.14 0.946l1.26-0.068c-11.947 4.267-37.12 15.36-74.667 33.707-24.938 10.19-46.464 22.807-65.879 37.998l0.599-0.451c-9.53 15.457-16.783 33.468-20.723 52.687l-0.184 1.073c-6.641 21.302-10.801 45.868-11.512 71.297l-0.008 0.383c2.96 33.068 12.407 63.352 27.062 90.401l-0.609-1.228c4.267 6.827 6.827 10.24 8.107 10.24l5.973-5.973c6.815-21.805 13.907-50.507 19.573-79.718l0.907-5.615c7.028-37.958 14.716-69.399 23.918-100.187l-1.731 6.747c12.932-15.977 28.498-29.23 46.135-39.262l0.799-0.418c16.827-11.366 36.141-21.17 56.649-28.454l1.805-0.559c27.267-5.847 60.259-10.54 93.855-13.071l2.572-0.156c48.213-4.693 72.533-5.12 74.24 0s-13.227 8.533-38.827 17.493l-80.64 26.027c-20.464 5.078-38.426 13.461-54.26 24.655l0.5-0.335c-17.788 25.418-30.071 55.956-34.448 88.989l-0.112 1.038c-7.057 23.906-11.118 51.371-11.118 79.784 0 7.96 0.319 15.845 0.944 23.643l-0.066-1.028c10.26 32.566 24.786 60.895 43.247 86.166l-0.58-0.833c16.262 27.009 35.056 50.283 56.596 70.685l0.151 0.142c16.494 14.306 37.445 23.881 60.516 26.409l0.498 0.044c8.107 0 10.667-5.12 8.107-16.213 0 0-17.067-29.867-50.773-85.333-16.548-26.7-34.182-59.141-50.134-92.54l-2.773-6.447c-1.453-10.954-2.282-23.62-2.282-36.48s0.829-25.526 2.437-37.947l-0.155 1.467c1.018-25.026 5.468-48.657 12.896-70.927l-0.523 1.807c23.011-16.347 49.306-30.691 77.247-41.778l2.539-0.889c49.493-22.613 74.667-31.573 76.373-27.733-6.665 9.177-14.107 17.16-22.411 24.154l-0.202 0.166c-14.933 14.933-29.867 31.573-45.653 49.92-11.579 11.17-19.778 25.771-22.959 42.164l-0.081 0.502c1.453 46.011 17.256 88.066 43.054 122.134l-0.387-0.534c33.28 40.533 54.613 62.293 75.947 65.28v0c19.2 0 42.667-23.040 72.96-65.28 23.369-34.333 38.755-75.842 42.601-120.648l0.066-0.952c-3.266-16.971-11.635-31.604-23.422-42.626l-0.044-0.041c-15.175-17.996-30.37-34.271-46.336-49.756l-0.17-0.164c-15.36-14.507-22.613-22.613-21.333-24.32s12.373 0 37.547 11.52 50.347 21.333 75.947 34.133c15.475 6.547 28.823 14.416 40.957 23.781l-0.423-0.314c8.741 20.384 14.029 44.071 14.504 68.937l0.003 0.183c1.999 10.968 3.142 23.59 3.142 36.48s-1.143 25.512-3.333 37.772l0.191-1.292c-2.987 6.4-20.907 37.973-53.76 94.293s-49.92 85.333-49.92 87.893c-2.56 11.093 0 16.213 5.973 16.213v0c24.508-1.181 46.513-11.025 63.211-26.512l-0.064 0.059c20.666-21.427 39.009-45.337 54.473-71.17l0.993-1.79c18.065-24.396 32.612-52.751 42.128-83.323l0.539-2.010c0.583-6.933 0.916-15.006 0.916-23.156 0-28.525-4.075-56.098-11.673-82.169l0.517 2.071c-4.525-33.777-16.804-64.023-34.985-89.809l0.425 0.636c-15.333-10.859-33.296-19.242-52.66-24.087l-1.1-0.233-81.067-27.307c-25.173-8.96-37.547-14.507-37.547-17.493s24.32-3.413 72.96 0c38.472 4.743 72.74 11.775 105.984 21.237l-4.864-1.184c22.318 8.532 41.602 19.020 59.226 31.674l-0.772-0.527c18.436 10.45 34.001 23.703 46.696 39.377l0.238 0.303c9.211 26.358 17.087 57.845 22.199 90.251l0.415 3.189c11.947 56.747 18.347 85.333 18.347 85.333l5.973 5.973c2.56 0 5.12-3.413 8.107-10.24 14.716-25.698 24.258-56.109 26.419-88.539l0.034-0.634c-0.719-25.812-4.879-50.378-12.037-73.63l0.517 1.95c-4.275-19.663-10.749-37.052-19.31-53.161l0.537 1.108z" />
<glyph unicode="&#xe95a;" glyph-name="ui-kijkwijzer-discriminatie" d="M873.813 788.48c-89.386 92.694-214.66 150.259-353.379 150.259-2.966 0-5.925-0.026-8.879-0.079l0.444 0.006h-3.84c-0.576 0.002-1.257 0.004-1.938 0.004-140.258 0-266.924-58.192-357.172-151.748l-0.143-0.149c-91.937-89.808-148.95-215.023-148.95-353.554 0-2.304 0.016-4.604 0.047-6.901l-0.004 0.348c-0.037-2.259-0.059-4.924-0.059-7.595 0-138.712 57.56-263.98 150.097-353.223l0.149-0.143c89.856-93.202 215.799-151.084 355.261-151.084 2.304 0 4.604 0.016 6.9 0.047l-0.348-0.004c2.259-0.037 4.924-0.059 7.595-0.059 138.712 0 263.98 57.56 353.223 150.097l0.143 0.149c93.193 89.453 151.099 215.057 151.099 354.186 0 2.682-0.022 5.358-0.064 8.029l0.005-0.402c0.035 2.19 0.055 4.775 0.055 7.365 0 139.051-57.541 264.662-150.11 354.322l-0.131 0.127zM597.333 22.187l-72.96-5.973h-12.373c45.653 94.293 73.387 142.507 82.773 143.787h2.56c12.373 0 12.8-46.080 0-137.813zM840.533 178.347c-24.32-33.707-42.667-56.747-51.627-69.12-16.406-16.424-35.064-30.595-55.471-42.011l-1.276-0.656c-28.25-17.035-61.12-30.056-96.127-37.204l-2.006-0.342c19.826 58.732 34.867 127.454 42.308 198.44l0.359 4.227c2.987 81.067-12.8 138.667-46.507 170.667-7.834 10.875-20.461 17.873-34.723 17.873-4.198 0-8.254-0.606-12.085-1.736l0.302 0.076-32.427-3.84c-2.987 0-6.4 9.813-11.093 25.173s-11.947 34.56-21.333 56.747c-8.411 20.618-19.329 38.385-32.657 54.037l0.23-0.277c-5.125 6.282-12.866 10.261-21.537 10.261-0.378 0-0.755-0.008-1.13-0.023l0.054 0.002c-17.603-3.163-32.53-12.783-42.538-26.272l-0.129-0.181c-11.349-10.806-18.591-25.835-19.197-42.557l-0.003-0.109q0-36.693 57.6-69.12c21.596-11.429 39.875-22.889 57.26-35.505l-1.367 0.945s0-4.267-3.84-8.96l-14.507-17.067c-4.884-6.311-8.346-13.965-9.771-22.313l-0.042-0.3c-1.006-3.453-1.585-7.419-1.585-11.52s0.579-8.067 1.659-11.821l-0.074 0.301c2.987-8.96 7.253-21.76 13.227-38.827 5.918-16.002 10.554-34.738 13.085-54.136l0.142-1.331c0.527-8.103 0.828-17.569 0.828-27.104 0-64.276-13.653-125.364-38.218-180.521l1.124 2.825c-3.106-0.107-6.757-0.169-10.422-0.169-65.121 0-125.728 19.323-176.402 52.549l1.224-0.753c-43.241 32.577-78.4 73.462-103.575 120.493l-0.958 1.96c-25.525 39.142-40.707 87.053-40.707 138.51 0 22.955 3.021 45.205 8.688 66.373l-0.408-1.79c3.612 10.31 9.47 19.054 17.021 25.985l0.046 0.042c6.104 5.748 13.14 10.601 20.838 14.293l0.495 0.214c7.879 1.914 14.67 5.796 20.059 11.099l-0.006-0.005c4.267 5.18 6.854 11.884 6.854 19.191 0 0.453-0.010 0.904-0.030 1.353l0.002-0.064c-11.21 30.257-23.564 55.994-37.953 80.388l1.259-2.308c-23.467 46.507-31.573 76.373-23.467 90.027 12.034 17.057 31.26 28.347 53.171 29.434l0.162 0.006c2.211 0.303 4.765 0.476 7.361 0.476 19.292 0 36.352-9.555 46.706-24.19l0.12-0.179c6.098-16.536 9.626-35.633 9.626-55.554 0-13.594-1.643-26.805-4.741-39.444l0.235 1.132c-4.23-22.133-6.709-47.644-6.826-73.713v-0.1c3.805-2.139 8.352-3.399 13.194-3.399 1.67 0 3.305 0.15 4.893 0.437l-0.166-0.025c8.869 0.518 17.157 2.351 24.887 5.311l-0.567-0.191h12.373c-1.166 7.236-1.832 15.578-1.832 24.076 0 25.235 5.873 49.098 16.327 70.297l-0.416-0.933c7.491 10.028 16.55 18.407 26.896 24.932l0.411 0.242 33.707 22.613c9.387 5.973 14.080 10.24 14.080 13.227-5.66 16.651-11.86 30.745-19.1 44.198l0.753-1.531c-9.662 19.914-18.946 43.827-26.384 68.539l-0.922 3.568c-2.783 8.252-4.39 17.755-4.39 27.634 0 12.842 2.715 25.050 7.601 36.082l-0.225-0.569c11.904 14.967 30.114 24.477 50.545 24.477 1.582 0 3.15-0.057 4.703-0.169l-0.208 0.012c2.058 0.238 4.443 0.374 6.86 0.374 22.88 0 42.918-12.169 53.995-30.387l0.158-0.28c2.679-10.915 4.215-23.446 4.215-36.336 0-21.344-4.213-41.704-11.853-60.294l0.385 1.057c-8.504-20.081-13.447-43.432-13.447-67.938 0-3.117 0.080-6.215 0.238-9.293l-0.018 0.431c10.673-8.284 23.171-14.847 36.728-18.985l0.819-0.215c14.596-4.451 27.169-11.785 37.615-21.396l-0.069 0.062 20.48-40.533c33.707 5.12 52.053 13.227 54.613 24.32-2.956 19.252-6.525 35.687-10.976 51.755l0.736-3.115c-5.395 20.288-10.613 46.297-14.452 72.754l-0.482 4.046c-1.142 6.581-1.795 14.16-1.795 21.892 0 14.743 2.374 28.932 6.76 42.204l-0.272-0.95c8.107 16.213 29.013 22.613 61.867 19.2 0.677 0.027 1.472 0.043 2.271 0.043 27.081 0 50.011-17.767 57.772-42.28l0.117-0.429c0.361-4.106 0.567-8.884 0.567-13.709 0-30.619-8.291-59.301-22.751-83.924l0.423 0.78c-12.948-22.512-23.119-48.615-29.112-76.274l-0.328-1.806c0-11.093 9.387-20.053 24.32-27.307 11.863-5.195 21.94-12.401 30.246-21.282l0.047-0.051c10.221-12.401 18.248-27.048 23.224-43.040l0.243-0.907c4.057-12.642 6.667-27.241 7.244-42.36l0.009-0.307-2.133-16.213c23.040 0 35.84 6.827 38.4 16.213 0.020 1.030 0.031 2.245 0.031 3.462 0 15.724-1.878 31.010-5.421 45.645l0.27-1.321c-3.817 20.288-6.998 45.304-8.829 70.694l-0.131 2.266c-0.226 2.274-0.356 4.914-0.356 7.585 0 17.273 5.402 33.284 14.609 46.436l-0.173-0.261c13.445 12.055 31.307 19.425 50.89 19.425 2.061 0 4.104-0.082 6.124-0.242l-0.267 0.017c1.026 0.078 2.223 0.122 3.43 0.122 19.072 0 35.558-11.074 43.378-27.143l0.126-0.286c6.4-14.933 0-47.787-24.32-98.133-13.25-23.663-24.349-51.059-31.883-79.897l-0.543-2.449c0-3.84 10.667-10.667 28.16-20.053 14.209-6.227 25.488-16.954 32.257-30.349l0.17-0.371q32.853-72.107-50.773-183.467z" />
</font>
</defs>
</svg>
